imdb
rating

7.5
The Following

The Following

Full description

The Following S01E04 HDTV x264 AAC-V3nom

Size 127.374 MB   0 seeders     Added 2013-02-12 07:58:13

Stream torrent
Starting‥ You need BitLord! Get it from BitLord.com
To download or stream you need BitLord. Visit them at BitLord.com
							TV INFOThe Following S01E04 HDTV x264 AAC-V3nom

Format : MPEG-4
Format profile : Base Media / Version 2
Codec ID : mp42
File size : 121 MiB
Duration : 43mn 9s
Overall bit rate mode : Variable
Overall bit rate : 393 Kbps
Encoded date : UTC 2013-02-12 11:14:48
Tagged date : UTC 2013-02-12 11:36:34

Video
ID : 1
Format : AVC
Format/Info : Advanced Video Codec
Format profile : Main@L2.1
Format settings, CABAC : Yes
Format settings, ReFrames : 4 frames
Codec ID : avc1
Codec ID/Info : Advanced Video Coding
Duration : 43mn 9s
Bit rate mode : Variable
Bit rate : 289 Kbps
Width : 640 pixels
Height : 256 pixels
Display aspect ratio : 16:9
Original display aspect ratio : 16:9
Frame rate mode : Variable
Frame rate : 23.976 fps
Minimum frame rate : 23.974 fps
Maximum frame rate : 23.981 fps
Color space : YUV
Chroma subsampling : 4:2:0
Bit depth : 8 bits
Scan type : Progressive
Bits/(Pixel*Frame) : 0.074
Stream size : 90.0 MiB (74%)
Writing library : x264 core 112

Audio
ID : 2
Format : AAC
Format/Info : Advanced Audio Codec
Format profile : LC
Codec ID : 40
Duration : 43mn 8s
Bit rate mode : Variable
Bit rate : 96.0 Kbps
Maximum bit rate : 156 Kbps
Channel(s) : 2 channels
Channel positions : Front: L R
Sampling rate : 48.0 KHz
Compression mode : Lossy
Delay relative to video : 83ms
Stream size : 29.6 MiB (24%)
Encoded date : UTC 2013-02-12 11:14:48
Tagged date : UTC 2013-02-12 11:36:32SOURCEThe.Following.S01E04.HDTV.x264-LOL(THANKS)SCREENSHOTS
The Following S01E04 HDTV x264 AAC-V3nom/Torrent Download Site's/Torrent downloaded from tracker.Btarena.org.txt 43 B
The Following S01E04 HDTV x264 AAC-V3nom/Torrent Download Site's/Torrent downloaded from Extratorrent.com.txt 40 B
The Following S01E04 HDTV x264 AAC-V3nom/Torrent Download Site's/Torrent Downloaded from Limetorrents.com.txt 40 B
Gathering some info...

Register and log in Isohunt and see no captcha anymore!

4000 symbols left
Hash f992bb2ff9e9c57be602cbbf11d24b0da6b8b779

Related torrents for "The Following S01E04 HDTV x264 AAC-V3nom"

Torrent search:

season 01 x264 hdtv episode 04