imdb
rating

6.7
Catch a Fire

Catch a Fire (2006)

Action, Drama, Thriller

Full description

Catch a fire (2006).avi

Size 1.528 GB   0 seeders     Added 2013-02-12 11:19:42

Stream torrent
Starting‥ You need BitLord! Get it from BitLord.com
To download or stream you need BitLord. Visit them at BitLord.com
							Catch a fire (2006) [DivX - Italian Ac3 5.1] MIRCrew [TNT Village]
*********************************************
Catch a fire (2006)
Rip by Halfman
Titolo originale 	Catch a Fire
Lingua originale 	inglese/zulu/afrikaans
Paese di produzione 	USA, Regno Unito, Sudafrica, Francia
Anno 	2006
Durata 	101 min
Catch a Fire è un film del 2006 diretto da Phillip Noyce, basato sulla storia vera dell'attivista politico sudafricano Patrick Chamusso, scritto da Shawn Slovo, figlia di Joe Slovo e Ruth 
First, che furono tra i leader del movimento anti-apartheid e del Partito Comunista Sudafricano e figurano come personaggi secondari del film.
Il titolo è tratto dall'album del 1973 di Bob Marley and the Wailers.
Rapporto 	2.35 : 1
Genere 	drammatico, biografico, storico, thriller
Regia 	Phillip Noyce
Sceneggiatura 	Shawn Slovo
Produttore 	Tim Bevan, Eric Fellner, Anthony Minghella, Robyn Slovo
Produttore esecutivo 	Sydney Pollack, Debra Hayward, Liza Chasin
Casa di produzione 	Working Title Films, Mirage Enterprises
Distribuzione (Italia) 	Universal Pictures
Fotografia 	Ron Fortunato, Garry Phillips
Montaggio 	Jill Bilcock
Musiche 	Philip Miller
Scenografia 	Johnny Bree
 Derek Luke: Patrick Chamusso
 Tim Robbins: Nic Vos
 Bonnie Henna: Precious Chamusso
 Mncedisi Shabangu: Zuko September
 Tumisho Masha: Obadi
 Sithembiso Khumalo: Sixpence
 Terry Pheto: Miriam
 Michele Burgers: Anna Vos
Sudafrica, primi anni ottanta, nel pieno dell'apartheid. Il giovane operaio Patrick Chamusso trascorre un'esistenza tranquilla, dedita interamente alla moglie Precious, alle due figlie e ai 
ragazzini della squadra di calcio di cui è allenatore. Benché sia del tutto estraneo all'attività politica, quando la raffineria presso cui lavora è bersaglio di un attentato viene 
prelevato dall'Antiterrorismo insieme ad altri operai e viene torturato per fargli confessare l'appartenenza all'African National Congress e il coinvolgimento nell'azione 
terroristica.....................
General
Complete name : C:\Usersobbyrs\Desktop\Catch a fire (2006).avi
Format : AVI
Format/Info : Audio Video Interleave
File size : 1.42 GiB
Duration : 1h 37mn
Overall bit rate : 2 094 Kbps
Writing application : VirtualDubMod 1.5.10.2 (build 2540/release)
Writing library : VirtualDubMod build 2540/release
Video
ID : 0
Format : MPEG-4 Visual
Format settings, BVOP : Yes
Format settings, QPel : No
Format settings, GMC : No warppoints
Format settings, Matrix : Default (H.263)
Muxing mode : Packed bitstream
Codec ID : DX50
Codec ID/Hint : DivX 5
Duration : 1h 37mn
Bit rate : 1 700 Kbps
Width : 720 pixels
Height : 304 pixels
Display aspect ratio : 2.35:1
Frame rate : 25.000 fps
Color space : YUV
Chroma subsampling : 4:2:0
Bit depth : 8 bits
Scan type : Progressive
Bits/(Pixel*Frame) : 0.311
Stream size : 1.16 GiB (81%)
Writing library : DivX 6.6.1.4
Audio
ID : 1
Format : AC-3
Format/Info : Audio Coding 3
Mode extension : CM (complete main)
Codec ID : 2000
Duration : 1h 37mn
Bit rate mode : Constant
Bit rate : 384 Kbps
Channel(s) : 6 channels
Channel positions : Front: L C R, Side: L R, LFE
Sampling rate : 48.0 KHz
Bit depth : 16 bits
Stream size : 267 MiB (18%)
Alignment : Aligned on interleaves
Interleave, duration : 40 ms (1.00 video frame)
Interleave, preload duration : 512 ms
						
Catch a fire (2006).avi 1.528 GB
Gathering some info...

Register and log in Isohunt and see no captcha anymore!

4000 symbols left
Hash 408290244da534cbccff9745677df59c258ee159

Related torrents for "Catch a fire (2006).avi"

Torrent search:

2006