imdb
rating

7.8
Wreck-It Ralph

Wreck-It Ralph (2012)

Adventure, Animation, Comedy, Family

Full description
quality   dvdrip hd fullhd screener dvd bd

Wreck-It.Ralph.2012 WEBRip XViD-juggs

Size 740.056 MB   0 seeders     Added 2013-02-12 12:41:02

Stream torrent
Starting‥ You need BitLord! Get it from BitLord.com
To download or stream you need BitLord. Visit them at BitLord.com
							
Format : AVI
Format/Info : Audio Video Interleave
File size : 695 MiB
Duration : 1h 41mn
Overall bit rate : 960 Kbps
Video
ID : 0
Format : MPEG-4 Visual
Format profile : Advanced Simple@L5
Format settings, BVOP : 2
Format settings, QPel : No
Format settings, GMC : No warppoints
Format settings, Matrix : Default (H.263)
Codec ID : XVID
Codec ID/Hint : XviD
Duration : 1h 41mn
Bit rate : 794 Kbps
Width : 640 pixels
Height : 272 pixels
Display aspect ratio : 2.35:1
Frame rate : 23.976 fps
Color space : YUV
Chroma subsampling : 4:2:0
Bit depth : 8 bits
Scan type : Progressive
Compression mode : Lossy
Bits/(Pixel*Frame) : 0.190
Stream size : 575 MiB (83%)
Writing library : XviD 1.2.1 (UTC 2008-12-04)
Audio
ID : 1
Format : MPEG Audio
Format version : Version 1
Format profile : Layer 3
Mode : Joint stereo
Mode extension : MS Stereo
Codec ID : 55
Codec ID/Hint : MP3
Duration : 1h 41mn
Bit rate mode : Constant
Bit rate : 160 Kbps
Channel(s) : 2 channels
Sampling rate : 48.0 KHz
Compression mode : Lossy
Stream size : 116 MiB (17%)
Alignment : Aligned on interleaves
Interleave, duration : 167 ms (4.00 video frames)
Interleave, preload duration : 216 ms
Plot
A video game villain wants to be a hero and sets out to fulfill his dream, but his quest brings havoc to the whole arcade where he lives.
Wreck-It.Ralph.2012 WEBRip XViD-juggs/Torrent Downloaded From ExtraTorrent.com.txt 339 B
Wreck-It.Ralph.2012 WEBRip XViD-juggs/Wreck-It.Ralph.2012 WEBRip XViD-juggs.avi 729.06 MB
Wreck-It.Ralph.2012 WEBRip XViD-juggs/sample.avi 10.996 MB
Gathering some info...

Register and log in Isohunt and see no captcha anymore!

4000 symbols left
Hash fbd2845f635a11740f305775bd8671e47ff63189

Related torrents for "Wreck-It.Ralph.2012 WEBRip XViD-juggs"

Torrent search:

2012 web-rip