Bodies

Bodies (2014)

Full description

Warm Bodies (2013) HDCAM 362p [Zend]

Size 1.143 GB   14 seeders     Added 2013-02-12 15:00:31

Stream torrent
Starting‥ You need BitLord! Get it from 1BitLord.com
To download or stream you need BitLord. Visit them at BitLord.com
							Description
Poster: image
Release date: 2013
Genre: Comedy, Horror, Romance
Plot: After a zombie becomes involved with the girlfriend of one of his victims, their romance sets in motion a sequence of events that might transform the entire lifeless world.
--------------------------------
Runtime: 1 h 37 min
Rating: N/A/10
Votes: N/A
Writer(s)/Director(s): Jonathan Levine, Isaac Marion/Jonathan Levine
Actors: Nicholas Hoult, Teresa Palmer, John Malkovich, Dave Franco
Trailer: image
Mediainfo:
General
Complete name :	Warm Bodies (2013) HDCAM 362p [Zend]/Warm Bodies (2013) HDCAM 362p [Zend].mp4
Format :	MPEG-4
Format profile :	Base Media
Codec ID :	isom
File size :	1.05 GiB
Duration :	1h 32mn
Overall bit rate :	1 629 Kbps
Writing application :	Lavf53.21.1
Video
ID :	1
Format :	AVC
Format/Info :	Advanced Video Codec
Format profile :	Main@L3.0
Format settings, CABAC :	Yes
Format settings, ReFrames :	3 frames
Codec ID :	avc1
Codec ID/Info :	Advanced Video Coding
Duration :	1h 32mn
Bit rate :	1 500 Kbps
Width :	720 pixels
Height :	362 pixels
Display aspect ratio :	1.989
Frame rate mode :	Constant
Frame rate :	24.000 fps
Color space :	YUV
Chroma subsampling :	4:2:0
Bit depth :	8 bits
Scan type :	Progressive
Bits/(Pixel*Frame) :	0.240
Stream size :	986 MiB (92%)
Writing library :	x264 core 123 r2189 35cf912
Encoding settings :	cabac=1 / ref=3 / deblock=1:0:0 / analyse=0x1:0x111 / me=hex / subme=7 / psy=1 / psy_rd=1.00:0.00 / mixed_ref=0 / me_range=16 / chroma_me=1 / trellis=1 / 8x8dct=0 / cqm=0 / deadzone=21,11 / fast_pskip=1 / chroma_qp_offset=-2 / threads=6 / sliced_threads=0 / nr=0 / decimate=1 / interlaced=0 / bluray_compat=0 / constrained_intra=0 / bframes=3 / b_pyramid=0 / b_adapt=1 / b_bias=0 / direct=1 / weightb=0 / open_gop=1 / weightp=2 / keyint=250 / keyint_min=24 / scenecut=40 / intra_refresh=0 / rc_lookahead=40 / rc=abr / mbtree=1 / bitrate=1500 / ratetol=1.0 / qcomp=0.60 / qpmin=0 / qpmax=69 / qpstep=4 / ip_ratio=1.25 / aq=1:1.00
Audio
ID :	2
Format :	MPEG Audio
Format version :	Version 1
Format profile :	Layer 3
Mode :	Joint stereo
Mode extension :	MS Stereo
Codec ID :	6B
Duration :	1h 32mn
Bit rate mode :	Constant
Bit rate :	128 Kbps
Channel(s) :	2 channels
Sampling rate :	48.0 KHz
Compression mode :	Lossy
Delay relative to video :	42ms
Stream size :	84.3 MiB (8%)
Warm Bodies (2013) HDCAM 362p [Zend]/Piczend.com free image hosting.txt 68 B
Warm Bodies (2013) HDCAM 362p [Zend]/Torrent seeded by www.secureboxes.net.txt 84 B
Warm Bodies (2013) HDCAM 362p [Zend]/Warm Bodies (2013) 362p [Zend] (Sample).mp4 18.026 MB
Gathering some info...

Register and log in Isohunt and see no captcha anymore!

4000 symbols left
Hash 82aeb1a839cd6b3040880cd0deffb29696e3a828

Related torrents for "Warm Bodies (2013) HDCAM 362p [Zend]"

Torrent search:

2013