imdb
rating

5.3
The Forsaken

The Forsaken (2001)

Action, Adventure, Horror, Thriller

Full description
quality   dvdrip hd web-dl x264 fullhd h264 bd

The Forsaken (2001)-alE13

Size 3.047 GB   0 seeders     Added 2013-02-13 02:19:41

Stream torrent
Starting‥ You need BitLord! Get it from BitLord.com
To download or stream you need BitLord. Visit them at BitLord.com
							The file containing - sample!!!
Plik zawiera - sample !!!
gatunek: Horror
produkcja: USA
premiera: 27 kwietnia 2001 (świat)
reżyseria: J.S. Cardone
scenariusz: J.S. Cardone
muzyka: Johnny Lee Schell , Tim Jones
zdjęcia: Steven Bernstein
Opis Filmu:
A young man gets embroiled in a war against vampires. 
Nastoletni Sean (Kerry Smith), wyrusza samochodem w podróż przez pustynię, 
by zdążyć na ślub siostry. Zabiera ze sobą dziwnego autostopowicza, Nicka 
(Brendan Fehr), który utrzymuje, że jest pogromcą wampirów. Następnie dołącza 
do nich piękna Megan (Izabella Miko), która twierdzi, że niedawno padła ofiarą 
upiorów. Sytuacja się komplikuje, gdy Sean zostaje zarażony śmiercionośnym 
wirusem. Jedyną jego szansą na przeżycie jest zabicie przywódcy gangu wampirów. 
Obsada:
 Kerr Smith.....Sean
 A.J. Buckley...Mike
 Johnathon Schaech ...Kit
Dane Techniczne:
The Forsaken (2001)-alE13.mkv
Format : Matroska
Format version : Version 2
File size : 2.81 GiB
Duration : 1h 30mn
Overall bit rate : 4 430 Kbps
Movie name : The Forsaken (2001)-alE13
Encoded date : UTC 2013-02-13 00:06:29
Writing application : mkvmerge v5.8.0 ('No Sleep / Pillow') built on Sep 2 2012 15:37:04
Writing library : libebml v1.2.3 + libmatroska v1.3.0
Attachment : Yes
Video
ID : 1
Format : AVC
Format/Info : Advanced Video Codec
Format profile : High@L3.1
Format settings, CABAC : No
Format settings, ReFrames : 2 frames
Muxing mode : Header stripping
Codec ID : V_MPEG4/ISO/AVC
Duration : 1h 30mn
Bit rate : 3 958 Kbps
Width : 1 280 pixels
Height : 718 pixels
Display aspect ratio : 16:9
Frame rate mode : Constant
Frame rate : 23.976 fps
Color space : YUV
Chroma subsampling : 4:2:0
Bit depth : 8 bits
Scan type : Progressive
Bits/(Pixel*Frame) : 0.180
Stream size : 2.51 GiB (89%)
Language : English
Default : Yes
Forced : No
Color primaries : BT.709
Transfer characteristics : BT.709
Matrix coefficients : BT.709
Audio
ID : 2
Format : AC-3
Format/Info : Audio Coding 3
Mode extension : CM (complete main)
Format settings, Endianness : Big
Muxing mode : Header stripping
Codec ID : A_AC3
Duration : 1h 30mn
Bit rate mode : Constant
Bit rate : 384 Kbps
Channel(s) : 6 channels
Channel positions : Front: L C R, Side: L R, LFE
Sampling rate : 48.0 KHz
Bit depth : 16 bits
Compression mode : Lossy
Stream size : 249 MiB (9%)
Language : English
Text : Polish
ID : 3
Format : UTF-8
Codec ID : S_TEXT/UTF8
Codec ID/Info : UTF-8 Plain Text
The Forsaken (2001)-alE13/1.jpg 76.851 KB
The Forsaken (2001)-alE13/2.jpg 159.943 KB
The Forsaken (2001)-alE13/sample.mkv 33.126 MB
Gathering some info...

Register and log in Isohunt and see no captcha anymore!

4000 symbols left
Hash ac36e7e5eaa758442fe7fb6009bc036d0c551b79

Related torrents for "The Forsaken (2001)-alE13"

Torrent search:

2001