imdb
rating

7.3
Enemy of the State

Enemy of the State (1998)

Action, Drama, Thriller

Full description
quality   hd dvdrip bd x264 hdtv fullhd

Enemy Of The State

Size 2.31 GB   0 seeders     Added 2013-02-13 03:30:54

Stream torrent
Starting‥ You need BitLord! Get it from BitLord.com
10
To download or stream you need BitLord. Visit them at BitLord.com
With: Will Smith, Gene Hackman and Jon Voight

Wanneer de succesvolle advocaat Robert Clayton Dean een oude vriend tegenkomt, komt hij in het bezit van een disc. Deze disc bevat opnames van een politieke moord. De dader komt er al snel achter dat Dean de disc in bezit heeft, en besluit de bronnen van de National Security Agency te gebruiken om hem te vinden. Dean heeft echter geen idee waarom hij achtervolgd wordt.

A lawyer becomes a target by a corrupt politician and his NSA goons when he accidentally receives key evidence to a serious politically motivated crime. 
 
http://www.imdb.com/title/tt0120660	

------------------------ Dutch Friends ------------------------
---------------------------------------------------------------
- Bezoek ook eens mijn vrienden op:  http://www.Film-Test.nl --
----- voor mijn Nederlandse Sync. ondertitels ---- en meer ----
------- http://www.Film-Test.nl ---- Over Films en meer -------
---------------------------------------------------------------

General
Complete name                    : G:KlambakeEnemy Of The StateEnemy Of The State.avi
Format                           : AVI
Format/Info                      : Audio Video Interleave
File size                        : 2.15 GiB
Duration                         : 2h 6mn
Overall bit rate                 : 2 431 Kbps

Video
ID                               : 0
Format                           : MPEG-4 Visual
Format profile                   : Simple@L3
Format settings, BVOP            : No
Format settings, QPel            : No
Format settings, GMC             : No warppoints
Format settings, Matrix          : Default (H.263)
Codec ID                         : XVID
Codec ID/Hint                    : XviD
Duration                         : 2h 6mn
Bit rate                         : 2 036 Kbps
Width                            : 720 pixels
Height                           : 304 pixels
Display aspect ratio             : 2.35:1
Frame rate                       : 25.000 fps
Color space                      : YUV
Chroma subsampling               : 4:2:0
Bit depth                        : 8 bits
Scan type                        : Progressive
Compression mode                 : Lossy
Bits/(Pixel*Frame)               : 0.372
Stream size                      : 1.80 GiB (84%)
Writing library                  : XviD 1.1.2 (UTC 2006-11-01)

Audio
ID                               : 1
Format                           : AC-3
Format/Info                      : Audio Coding 3
Mode extension                   : CM (complete main)
Codec ID                         : 2000
Duration                         : 2h 6mn
Bit rate mode                    : Constant
Bit rate                         : 384 Kbps
Channel(s)                       : 6 channels
Channel positions                : Front: L C R, Side: L R, LFE
Sampling rate                    : 48.0 KHz
Bit depth                        : 16 bits
Compression mode                 : Lossy
Stream size                      : 348 MiB (16%)
Alignment                        : Aligned on interleaves
Interleave, duration             : 32 ms (0.80 video frame)
Interleave, preload duration     : 288 ms		
Enemy Of The State/Cover/Enemy Of The State.jpg 303.725 KB
Enemy Of The State/Cover/www.Film-Test.nl.JPG 29.467 KB
Enemy Of The State/Enemy Of The State.avi 2.31 GB
Gathering some info...

Register and log in Isohunt and see no captcha anymore!

4000 symbols left
Hash 4a35ae90dbd89bb7be03d41063c216afb49cd743

Related torrents for "Enemy Of The State"