imdb
rating

6.7
Love

Love (2012)

Drama, Romance

Full description

10ml Love 2012 Hindi Movies DvDRip XviD New Source Sample Included ~ rDX

Size 733.833 MB   15 seeders     Added 2013-02-14 03:19:29

Stream torrent
Starting‥ You need BitLord! Get it from BitLord.com
To download or stream you need BitLord. Visit them at BitLord.com
							10ml Love 2012 Hindi Movies DvDRip XviD New Source Sample Included ~ rDXScreen Shots :http://myimghosting.serveftp.com/10mlLove.htmlhttp://myimghost.cwahi.net/10mlLove.html
Format : AVI
Format/Info : Audio Video Interleave
File size : 688 MiB
Duration : 1h 23mn
Overall bit rate mode : Variable
Overall bit rate : 1 153 Kbps
Writing library : MPlayer
Video
ID : 0
Format : MPEG-4 Visual
Format profile : Advanced Simple@L5
Format settings, BVOP : 1
Format settings, QPel : No
Format settings, GMC : No warppoints
Format settings, Matrix : Custom
Codec ID : XVID
Codec ID/Hint : XviD
Duration : 1h 23mn
Bit rate : 1 045 Kbps
Width : 656 pixels
Height : 320 pixels
Display aspect ratio : 2.050
Frame rate : 25.000 fps
Color space : YUV
Chroma subsampling : 4:2:0
Bit depth : 8 bits
Scan type : Progressive
Compression mode : Lossy
Bits/(Pixel*Frame) : 0.199
Stream size : 624 MiB (91%)
Writing library : XviD 1.2.1 (UTC 2008-12-04)
Audio
ID : 1
Format : MPEG Audio
Format version : Version 1
Format profile : Layer 3
Mode : Joint stereo
Mode extension : MS Stereo
Codec ID : 55
Codec ID/Hint : MP3
Duration : 1h 23mn
Bit rate mode : Variable
Bit rate : 96.0 Kbps
Channel(s) : 2 channels
Sampling rate : 32.0 KHz
Compression mode : Lossy
Stream size : 58.0 MiB (8%)
Alignment : Aligned on interleaves
Interleave, duration : 36 ms (0.90 video frame)
Interleave, preload duration : 462 ms
						
10ml Love 2012 Hindi Movies DvDRip XviD New Source Sample Included ~ rDX/10ml Love 2012 Hindi Movies DvDRip XviD New Source ~ rDX.avi 720.996 MB
10ml Love 2012 Hindi Movies DvDRip XviD New Source Sample Included ~ rDX/Sample ~ 10ml Love 2012 Hindi Movies DvDRip XviD New Source ~ rDX.avi 12.837 MB
Gathering some info...

Register and log in Isohunt and see no captcha anymore!

4000 symbols left
Hash d52fcbcfc51985687c525bdc5a17d3611135cb0a

Related torrents for "10ml Love 2012 Hindi Movies DvDRip XviD New Source Sample Included ~ rDX"

Torrent search:

dvdrip hindi 2012