imdb
rating

8.7
Justified

Justified (2010)

Action, Crime, Drama

Full description

Justified 4x06 fastsub vostfr.mp4

Size 300.264 MB   0 seeders     Added 2013-02-14 06:24:36

Stream torrent
Starting‥ You need BitLord! Get it from BitLord.com
To download or stream you need BitLord. Visit them at BitLord.com
Justified 4x06 fastsub vostfr.mp4
Format                           : MPEG-4
Format profile                   : Base Media
Codec ID                         : isom
File size                        : 286 MiB
Duration                         : 41mn 20s
Overall bit rate                 : 969 Kbps
Encoded date                     : UTC 2013-02-14 08:04:53
Tagged date                      : UTC 2013-02-14 08:04:53
Video
ID                               : 1
Format                           : AVC
Format/Info                      : Advanced Video Codec
Format profile                   : High@L3.1
Format settings, CABAC           : Yes
Format settings, ReFrames        : 5 frames
Codec ID                         : avc1
Codec ID/Info                    : Advanced Video Coding
Duration                         : 41mn 20s
Bit rate mode                    : Variable
Bit rate                         : 836 Kbps
Maximum bit rate                 : 17.5 Mbps
Width                            : 720 pixels
Height                           : 406 pixels
Display aspect ratio             : 16:9
Frame rate mode                  : Constant
Frame rate                       : 23.976 fps
Color space                      : YUV
Chroma subsampling               : 4:2:0
Bit depth                        : 8 bits
Scan type                        : Progressive
Bits/(Pixel*Frame)               : 0.119
Stream size                      : 247 MiB (86%)
Title                            : Justified 4x06 fastsub vostfr
Writing library                  : x264 core 125 r2208 d9d2288
Encoding settings                : cabac=1 / ref=5 / deblock=1:0:0 / analyse=0x3:0x113 / me=umh / subme=8 / psy=1 / psy_rd=1.00:0.00 / mixed_ref=1 / me_range=16 / chroma_me=1 / trellis=1 / 8x8dct=1 / cqm=0 / deadzone=21,11 / fast_pskip=1 / chroma_qp_offset=-2 / threads=12 / lookahead_threads=2 / sliced_threads=0 / nr=0 / decimate=1 / interlaced=0 / bluray_compat=0 / constrained_intra=0 / bframes=3 / b_pyramid=2 / b_adapt=2 / b_bias=0 / direct=3 / weightb=1 / open_gop=0 / weightp=2 / keyint=240 / keyint_min=24 / scenecut=40 / intra_refresh=0 / rc_lookahead=50 / rc=crf / mbtree=1 / crf=19.0 / qcomp=0.60 / qpmin=0 / qpmax=69 / qpstep=4 / vbv_maxrate=17500 / vbv_bufsize=17500 / crf_max=0.0 / nal_hrd=vbr / ip_ratio=1.40 / aq=1:1.00
Encoded date                     : UTC 2013-02-14 08:04:53
Tagged date                      : UTC 2013-02-14 08:05:04
Matrix coefficients              : BT.709-5, BT.1361, IEC 61966-2-4 709, SMPTE RP177
Audio
ID                               : 2
Format                           : AAC
Format/Info                      : Advanced Audio Codec
Format version                   : Version 4
Format profile                   : LC
Codec ID                         : 40
Duration                         : 41mn 20s
Bit rate mode                    : Variable
Bit rate                         : 128 Kbps
Maximum bit rate                 : 134 Kbps
Channel(s)                       : 2 channels
Channel positions                : Front: L R
Sampling rate                    : 48.0 KHz
Compression mode                 : Lossy
Stream size                      : 37.8 MiB (13%)
Encoded date                     : UTC 2013-02-14 08:05:02
Tagged date                      : UTC 2013-02-14 08:05:04
Justified 4x06 fastsub vostfr.mp4 300.264 MB
Gathering some info...

Register and log in Isohunt and see no captcha anymore!

4000 symbols left
Hash c939400b978f6837c59e3213ee25d05f6a02820a

Related torrents for "Justified 4x06 fastsub vostfr.mp4"

Torrent search:

season 04 episode 06