imdb
rating

4.7
In The Dark

In The Dark (2013)

Horror

Full description

Fall Out Boy - My Songs Know What You Did In The Dark (Light Em Up) 2013 M4A+MP4 (1080p) x264 [VX] [P2PDL]

Size 42.22 MB   4 seeders     Added 2013-02-14 06:33:35

Stream torrent
Starting‥ You need BitLord! Get it from BitLord.com
10
To download or stream you need BitLord. Visit them at BitLord.com
_________________________  Visit us at _________________________
  
http://p2pdl.com  ____________________________  http://p2pdl.com

 
image


Fall Out Boy - My Songs Know What You Did In The Dark 2013 M4A+MP4 (1080p) x264 [VX] [P2PDL]

                             1080p Full HD MP4 Video
                                      +                                            
                              128 Kbps/VBR M4A Audio

General
Complete name                  : Fall Out Boy - My Songs Know What You Did In The Dark (1080p) x264 [VX] [P2PDL].mp4
Format                         : MPEG-4
Format profile                 : Base Media / Version 2
Codec ID                       : mp42
File size                      : 36.7 MiB
Duration                       : 3mn 7s
Overall bit rate mode          : Variable
Overall bit rate               : 1 641 Kbps

Video
Format                         : AVC
Format/Info                    : Advanced Video Codec
Width                          : 1 920 pixels
Height                         : 820 pixels
Display aspect ratio           : 2.35:1
Frame rate mode                : Variable
Frame rate                     : 23.976 fps
Scan type                      : Progressive
Bits/(Pixel*Frame)             : 0.040
Stream size                    : 33.7 MiB (92%)
Writing library                : x264 core 129

Audio
ID                             : 2
Format                         : AAC
Bit rate mode                  : Variable
Bit rate                       : 128 Kbps
Channel(s)                     : 2 channels
Channel positions              : Front: L R
Sampling rate                  : 48.0 KHz
Stream size                    : 2.86 MiB (8%)

Subtitles                      : No

Screens:
 
image 
image

Thumbs:
 
image
------------------------------------------------------------------------

Notes:

* Recommended to use latest version VLC Media Player.
* Install shark007 codecs in case of any kind of problem in playback (For non-VLC Media Player users).
* Alternatively, install Core AVC codecs, the fastest decoder that there is coupled with Community Center Codec Pack and play on Windows Media Player Classic.

Greets to: VYTO, a2zRG, MusiK_KinG, Kuroyukihime, Caveman, Ash968, Neon, TwentyForty, Masta, TorDigger and staff members at ExtraTorrent, TPB, H33T, KAT, 1337x, PublicHD, Ahashare, TorrentMafia, Limetorrents, BTScene, P2PDL, and all others

Encoder Notes: Looking For Early Access To Anything You Can Provide DVDScr, R5, DVDRips, BluRay, Direct Audio, Early Music
Releases, Seedboxes, Links, Dedicated Servers anything u can provide, Advance / Promo CDs/DVDs. If You Got anything to
offer contact me at "prg@hush.com".

face book . com / p2pdl		
Fall Out Boy - My Songs Know What You Did In The Dark (Light Em Up) 2013 M4A+MP4 (1080p) x264 [VX] [P2PDL]/Fall Out Boy - My Songs Know What You Did In The Dark (1080p) x264 [VX] [P2PDL].mp4 38.489 MB
Fall Out Boy - My Songs Know What You Did In The Dark (Light Em Up) 2013 M4A+MP4 (1080p) x264 [VX] [P2PDL]/01 Fall Out Boy - My Songs Know What You Did In The Dark (Light Em Up).m4a 3.613 MB
Fall Out Boy - My Songs Know What You Did In The Dark (Light Em Up) 2013 M4A+MP4 (1080p) x264 [VX] [P2PDL]/Cover.jpg 107.176 KB
Gathering some info...

Register and log in Isohunt and see no captcha anymore!

4000 symbols left
Hash 6f93e6e336f9ace47dd3b4d9fbd86e3bd0180f97

Related torrents for "Fall Out Boy - My Songs Know What You Did In The Dark (Light Em Up) 2013 M4A+MP4 (1080p) x264 [VX] [P2PDL]"

Torrent search:

x264 fullhd 2013