imdb
rating

3.7
Rise of the Zombies

Rise of the Zombies (2012)

Action, Horror, Thriller

Full description
quality   hdtv x264 hd bd fullhd h264 dvdrip

Rise Of The Zombies (2012) 1CD BRRip XviD

Size 734.858 MB   0 seeders     Added 2013-02-14 11:58:02

Stream torrent
Starting‥ You need BitLord! Get it from 1BitLord.com
To download or stream you need BitLord. Visit them at BitLord.com
							General

Complete name : Rise Of The Zombies (2012) 1CD BRRip XviD.avi
Format : AVI
Format/Info : Audio Video Interleave
File size : 701 MiB
Duration : 1h 29mn
Overall bit rate mode : Variable
Overall bit rate : 1 096 Kbps

Video
ID : 0
Format : MPEG-4 Visual
Format profile : Advanced Simple@L5
Format settings, BVOP : 1
Format settings, QPel : No
Format settings, GMC : No warppoints
Format settings, Matrix : Default (MPEG)
Codec ID : XVID
Codec ID/Hint : XviD
Duration : 1h 29mn
Bit rate : 908 Kbps
Width : 624 pixels
Height : 352 pixels
Display aspect ratio : 16:9
Frame rate : 23.976 fps
Color space : YUV
Chroma subsampling : 4:2:0
Bit depth : 8 bits
Scan type : Progressive
Compression mode : Lossy
Bits/(Pixel*Frame) : 0.172
Stream size : 581 MiB (83%)
Writing library : XviD 1.2.1 (UTC 2008-12-04)

Audio
ID : 1
Format : MPEG Audio
Format version : Version 1
Format profile : Layer 3
Mode : Joint stereo
Mode extension : MS Stereo
Codec ID : 55
Codec ID/Hint : MP3
Duration : 1h 29mn
Bit rate mode : Variable
Bit rate : 175 Kbps
Nominal bit rate : 192 Kbps
Channel(s) : 2 channels
Sampling rate : 48.0 KHz
Compression mode : Lossy
Stream size : 112 MiB (16%)
Alignment : Aligned on interleaves
Interleave, duration : 24 ms (0.58 video frame)
Interleave, preload duration : 48 ms
Title : english
Writing library : LAME3.99r
						
Rise Of The Zombies (2012) 1CD BRRip XviD/Rise Of The Zombies (2012) 1CD BRRip XviD.avi 734.856 MB
Rise Of The Zombies (2012) 1CD BRRip XviD/Info.txt 2.295 KB
Gathering some info...

Register and log in Isohunt and see no captcha anymore!

4000 symbols left
Hash 60c34503928cb19bb8ed2b3bb7a5bbe36aadb63c

Related torrents for "Rise Of The Zombies (2012) 1CD BRRip XviD"

Torrent search:

2012 bd