Chris Ryan's Strike Back (2010) E01 720p MKV x264 AC3 BRrip [Pioneer].mkv

Size 1.174 GB   2 seeders     Added 2013-02-14 16:38:33

Stream torrent
Starting‥ You need BitLord! Get it from BitLord.com
To download or stream you need BitLord. Visit them at BitLord.com
							
Based on the novel by former SAS soldier Chris Ryan. The paths of former soldiers Major Hugh Collinson (Andrew Lincoln) and discharged veteran John Porter (Richard Armitage) last crossed seven years ago. Now, in the midst of a fresh hostage crisis in Basra, Iraq in the mid-1990s, they are about to be reunited once again.
Starring: Laura Greenwood, Shelley Conn, Andrew Lincoln, Richard Armitage, Jodhi May
Director: Daniel Percivalhttp://www.imdb.com/title/tt1492179/http://www.youtube.com/watch?v=w0L-J9HtJ8Q
General
Unique ID: 175306970418098262785985117241944824345 (0x83E2E4F6025A05EB9E9DCA34979FDA19)
Complete name: D:\Chris Ryan's Strike Back (2010) E01 720p MKV x264 AC3 BRrip [Pioneer].mkv
Format: Matroska
Format version: Version 2
File size: 1.09 GiB
Duration: 1h 28mn
Overall bit rate: 1 765 Kbps
Writing application: HandBrake 0.9.8
Writing library: libmkv 0.6.5
Video
ID: 1
Format: AVC
Format/Info: Advanced Video Codec
Format profile: High@L3.1
Format settings, CABAC: Yes
Format settings, ReFrames: 4 frames
Codec ID: V_MPEG4/ISO/AVC
Duration: 1h 28mn
Bit rate: 1 600 Kbps
Width: 1 280 pixels
Height: 720 pixels
Display aspect ratio: 16:9
Frame rate mode: Constant
Frame rate: 25.000 fps
Color space: YUV
Chroma subsampling: 4:2:0
Bit depth: 8 bits
Scan type: Progressive
Bits/(Pixel*Frame): 0.069
Stream size: 995 MiB (89%)
Writing library: x264 core 120
Language: English
Default: Yes
Forced: No
Color primaries: BT.709
Transfer characteristics: BT.709
Matrix coefficients: BT.709
Audio
ID: 2
Format: AC-3
Format/Info: Audio Coding 3
Mode extension: CM (complete main)
Format settings, Endianness: Big
Codec ID: A_AC3
Duration: 1h 28mn
Bit rate mode: Constant
Bit rate: 160 Kbps
Channel(s): 2 channels
Channel positions: Front: L R
Sampling rate: 48.0 KHz
Bit depth: 16 bits
Compression mode: Lossy
Stream size: 101 MiB (9%)
Language: English
Default: Yes
Forced: No
						
Chris Ryan's Strike Back (2010) E01 720p MKV x264 AC3 BRrip [Pioneer].mkv 1.174 GB
Gathering some info...

Register and log in Isohunt and see no captcha anymore!

4000 symbols left
Hash 7b3ba7eefc508939c68177a6effc769f476db9ea