Tere Mere Sapne (1996) DVD 480p XviD E-Subs

Size 1.556 GB   0 seeders     Added 2013-02-15 01:57:28

Stream torrent
Starting‚Ä• You need BitLord! Get it from 1BitLord.com
To download or stream you need BitLord. Visit them at BitLord.com
							Tere Mere Sapne (1996)image
INFO
[CODE]Format : AVI
Format/Info : Audio Video Interleave
File size : 1.45 GiB
Duration : 2h 27mn
Overall bit rate : 1 403 Kbps
Writing application : VirtualDubMod 1.5.10.2 (build 2542/release)
Writing library : VirtualDubMod build 2542/release
Video
ID : 0
Format : MPEG-4 Visual
Format profile : Advanced Simple@L5
Format settings, BVOP : 2
Format settings, QPel : Yes
Format settings, GMC : No warppoints
Format settings, Matrix : Custom
Codec ID : XVID
Codec ID/Hint : XviD
Duration : 2h 27mn
Bit rate : 1 202 Kbps
Width : 720 pixels
Height : 368 pixels
Display aspect ratio : 1.957
Frame rate : 23.976 fps
Color space : YUV
Chroma subsampling : 4:2:0
Bit depth : 8 bits
Scan type : Progressive
Compression mode : Lossy
Bits/(Pixel*Frame) : 0.189
Stream size : 1.24 GiB (86%)
Writing library : XviD 1.2.1 (UTC 2008-12-04)
Audio
ID : 1
Format : AC-3
Format/Info : Audio Coding 3
Mode extension : CM (complete main)
Codec ID : 2000
Duration : 2h 27mn
Bit rate mode : Constant
Bit rate : 192 Kbps
Channel(s) : 6 channels
Channel positions : Front: L C R, Side: L R, LFE
Sampling rate : 48.0 KHz
Bit depth : 16 bits
Compression mode : Lossy
Delay relative to video : 2s 0ms
Stream size : 203 MiB (14%)
Alignment : Split accross interleaves
Interleave, duration : 42 ms (1.00 video frame)
Interleave, preload duration : 500 ms[/CODE]
SCREEN SHOTSimage
						
Tere Mere Sapne (1996) DVD 480p XviD E-Subs/Tere Mere Sapne (1996) DVD 480p XviD E-Subs.avi 1.556 GB
Tere Mere Sapne (1996) DVD 480p XviD E-Subs/Tere Mere Sapne (1996) DVD 480p XviD E-Subs.srt 99.564 KB
Tere Mere Sapne (1996) DVD 480p XviD E-Subs/Torrent Tracked By Www.DesiDhamal.Com.txt 77 B
Gathering some info...

Register and log in Isohunt and see no captcha anymore!

4000 symbols left
Hash 5ccf8c9e2fb623567c98c07b2a19c941e8068d8e