imdb
rating

6.9
The Island

The Island (2005)

Action, Adventure, Science Fiction, Thriller

Full description

The Island (2005) 720p MKV x264 AC3 BRrip [Pioneer].mkv

Size 2.241 GB   0 seeders     Added 2013-02-15 04:57:56

Stream torrent
Starting‥ You need BitLord! Get it from 1BitLord.com
To download or stream you need BitLord. Visit them at BitLord.com
							
Thriller starring Ewan McGregor and Scarlett Johansson. Lincoln Six-Echo (McGregor) and Jordan Two-Delta (Johansson) are among hundreds of residents of a contained facility in the mid-21st century. Like all of the inhabitants of this carefully controlled environment, everything about their day-to-day lives is monitored, seemingly for their own good. The only way out is to be chosen to go to The Island, reportedly the last uncontaminated spot in the world. Recently plagued by unexplained nightmares, Lincoln is restless and increasingly questioning of the restrictions placed on his life. But he is unprepared for the truth when his growing curiosity leads to the terrible discovery that everything about his existence is a lie, that The Island is a cruel hoax, and that he, Jordan and everyone they know are actually more valuable dead than alive.
Starring: Ewan McGregor, Djimon Hounsou, Michael Clarke Duncan, Steve Buscemi, Scarlett Johansson, Sean Bean
Director: Michael Bayhttp://www.imdb.com/title/tt0399201/http://www.youtube.com/watch?v=ZtyC3jFh6eM
General
Unique ID: 110801333358271963594574760817614374358 (0x535B8F821F8B9F32C41E83B3159FC5D6)
Complete name: D:\The Island (2005) 720p MKV x264 AC3 BRrip [Pioneer].mkv
Format: Matroska
Format version: Version 2
File size: 2.09 GiB
Duration: 2h 16mn
Overall bit rate: 2 196 Kbps
Writing application: HandBrake 0.9.8
Writing library: libmkv 0.6.5
Video
ID: 1
Format: AVC
Format/Info: Advanced Video Codec
Format profile: High@L3.1
Format settings, CABAC: Yes
Format settings, ReFrames: 4 frames
Codec ID: V_MPEG4/ISO/AVC
Duration: 2h 16mn
Bit rate: 2 000 Kbps
Width: 1 280 pixels
Height: 532 pixels
Display aspect ratio: 2.40:1
Frame rate mode: Constant
Frame rate: 23.976 fps
Color space: YUV
Chroma subsampling: 4:2:0
Bit depth: 8 bits
Scan type: Progressive
Bits/(Pixel*Frame): 0.122
Stream size: 1.86 GiB (89%)
Writing library: x264 core 120
Language: English
Default: Yes
Forced: No
Color primaries: BT.709
Transfer characteristics: BT.709
Matrix coefficients: BT.709
Audio
ID: 2
Format: AC-3
Format/Info: Audio Coding 3
Mode extension: CM (complete main)
Format settings, Endianness: Big
Codec ID: A_AC3
Duration: 2h 16mn
Bit rate mode: Constant
Bit rate: 192 Kbps
Channel(s): 6 channels
Channel positions: Front: L C R, Side: L R, LFE
Sampling rate: 48.0 KHz
Bit depth: 16 bits
Compression mode: Lossy
Stream size: 187 MiB (9%)
Language: English
Default: Yes
Forced: No
						
The Island (2005) 720p MKV x264 AC3 BRrip [Pioneer].mkv 2.241 GB
Gathering some info...

Register and log in Isohunt and see no captcha anymore!

4000 symbols left
Hash 6afbbbb47ad511cd4ee3b72f441b6761f4cb9dba

Related torrents for "The Island (2005) 720p MKV x264 AC3 BRrip [Pioneer].mkv"

Torrent search:

2005 x264 hd bd