2012 - 2013 Hit's

Size 906.573 MB   0 seeders     Added 2013-02-15 20:26:37

Stream torrent
Starting  You need BitLord! Get it from BitLord.com
To download or stream you need BitLord. Visit them at BitLord.com
Description
Poster: image
Release date: 2012
Genre: Comedy, Horror
Plot: A clown comes back from the dead to haunt those who took his life during a fatal party mishap.
--------------------------------
Runtime: 1 h 26 min
Rating: 6.1/10
Votes: 197
Writer(s)/Director(s): Conor McMahon, David OBrien/Conor McMahon
Actors: Tom Cullen, Tommy Knight, Gemma-Leah Devereux, Ross Noble
Trailer: image
Mediainfo:
General
Complete name : 	Stitches (2012) BRRip 400p [Zend]/Stitches (2012) BRRip 400p [Zend].mp4
Format : 	MPEG-4
Format profile : 	Base Media
Codec ID : 	isom
File size : 	1.16 GiB
Duration : 	1h 26mn
Overall bit rate : 	1 933 Kbps
Writing application : 	Lavf53.21.1
Video
ID : 	1
Format : 	AVC
Format/Info : 	Advanced Video Codec
Format profile : 	Main@L3.0
Format settings, CABAC : 	Yes
Format settings, ReFrames : 	3 frames
Codec ID : 	avc1
Codec ID/Info : 	Advanced Video Coding
Duration : 	1h 26mn
Source duration : 	21s 251ms
Bit rate : 	1 500 Kbps
Width : 	720 pixels
Height : 	400 pixels
Display aspect ratio : 	16:9
Frame rate mode : 	Constant
Frame rate : 	23.976 fps
Color space : 	YUV
Chroma subsampling : 	4:2:0
Bit depth : 	8 bits
Scan type : 	Progressive
Bits/(Pixel*Frame) : 	0.217
Stream size : 	914 MiB (77%)
Source stream size : 	914 MiB (77%)
Writing library : 	x264 core 123 r2189 35cf912
Encoding settings : 	cabac=1 / ref=3 / deblock=1:0:0 / analyse=0x1:0x111 / me=hex / subme=7 / psy=1 / psy_rd=1.00:0.00 / mixed_ref=0 / me_range=16 / chroma_me=1 / trellis=1 / 8x8dct=0 / cqm=0 / deadzone=21,11 / fast_pskip=1 / chroma_qp_offset=-2 / threads=6 / sliced_threads=0 / nr=0 / decimate=1 / interlaced=0 / bluray_compat=0 / constrained_intra=0 / bframes=3 / b_pyramid=0 / b_adapt=1 / b_bias=0 / direct=1 / weightb=0 / open_gop=1 / weightp=2 / keyint=250 / keyint_min=23 / scenecut=40 / intra_refresh=0 / rc_lookahead=40 / rc=abr / mbtree=1 / bitrate=1500 / ratetol=1.0 / qcomp=0.60 / qpmin=0 / qpmax=69 / qpstep=4 / ip_ratio=1.25 / aq=1:1.00
mdhd_Duration : 	5175212
Audio
ID : 	2
Format : 	AC-3
Format/Info : 	Audio Coding 3
Mode extension : 	CM (complete main)
Format settings, Endianness : 	Big
Codec ID : 	ac-3
Duration : 	1h 26mn
Bit rate mode : 	Constant
Bit rate : 	448 Kbps
Channel(s) : 	6 channels
Channel positions : 	Front: L C R, Side: L R, LFE
Sampling rate : 	48.0 KHz
Bit depth : 	16 bits
Compression mode : 	Lossy
Delay relative to video : 	42ms
Stream size : 	276 MiB (23%)		
2012 - 2013 Hit's/Beyoncé - Dance For You.mp3 12.164 MB
2012 - 2013 Hit's/Kenny Chesney - El Cerrito Place.mp3 11.294 MB
2012 - 2013 Hit's/The Weeknd - Wicked Games.mp3 11.129 MB
Gathering some info...

Register and log in Isohunt and see no captcha anymore!

4000 symbols left
Hash 95c4e7fe931eba7d300866e871396d3f05cb4b85