imdb
rating

7.9
Kingdom

Kingdom (2007)

Drama, Family

Full description

Moonrise Kingdom (HD 1080p).m4v

Size 14.648 GB   0 seeders     Added 2013-02-15 22:22:46

Stream torrent
Starting‥ You need BitLord! Get it from BitLord.com
10
To download or stream you need BitLord. Visit them at BitLord.com
General
Complete name                            : Moonrise Kingdom (HD 1080p).m4v
Format                                   : MPEG-4
Format profile                           : Base Media / Version 2
Codec ID                                 : mp42
File size                                : 13.6 GiB
Duration                                 : 1h 33mn
Overall bit rate mode                    : Variable
Overall bit rate                         : 20.9 Mbps
Movie name                               : Moonrise Kingdom
Performer                                : Bruce Willis, Bill Murray, Frances McDormand, Tilda Swinton, Jason Schwartzman, Harvey Keitel, Edward Norton, Kara Hayward, Jared Gilman
Genre                                    : Drama
Recorded date                            : 2012-05-25
Encoded date                             : UTC 2012-10-29 04:24:53
Tagged date                              : UTC 2012-12-29 22:02:18
Writing application                      : HandBrake 5029svn 2012102701
Cover                                    : Yes
desc                                     : Set on an island off the coast of New England in the summer of 1965, MOONRISE KINGDOM tells the story of two twelve-year-olds who fall in love, make a secret pact, and run away together into the wilderness. As various authorities try to hunt them down, a violent storm is brewing off-shore -- and the peaceful island community is turned upside down in more ways than anyone can handle.
Video #1
ID                                       : 1
Format                                   : AVC
Format/Info                              : Advanced Video Codec
Format profile                           : High@L4.0
Format settings, CABAC                   : Yes
Format settings, ReFrames                : 4 frames
Codec ID                                 : avc1
Codec ID/Info                            : Advanced Video Coding
Duration                                 : 1h 33mn
Bit rate mode                            : Variable
Bit rate                                 : 20.0 Mbps
Width                                    : 1 920 pixels
Height                                   : 1 080 pixels
Display aspect ratio                     : 16:9
Frame rate mode                          : Variable
Frame rate                               : 24.000 fps
Minimum frame rate                       : 23.810 fps
Maximum frame rate                       : 200.000 fps
Color space                              : YUV
Chroma subsampling                       : 4:2:0
Bit depth                                : 8 bits
Scan type                                : Progressive
Bits/(Pixel*Frame)                       : 0.402
Stream size                              : 13.1 GiB (96%)
Writing library                          : x264 core 128
Encoding settings                        : cabac=1 / ref=4 / deblock=1:0:0 / analyse=0x3:0x133 / me=umh / subme=10 / psy=1 / psy_rd=1.00:0.15 / mixed_ref=1 / me_range=32 / chroma_me=1 / trellis=2 / 8x8dct=1 / cqm=0 / deadzone=21,11 / fast_pskip=1 / chroma_qp_offset=-3 / threads=12 / lookahead_threads=2 / sliced_threads=0 / nr=0 / decimate=1 / interlaced=0 / bluray_compat=0 / constrained_intra=0 / bframes=4 / b_pyramid=2 / b_adapt=2 / b_bias=0 / direct=3 / weightb=1 / open_gop=0 / weightp=2 / keyint=240 / keyint_min=24 / scenecut=40 / intra_refresh=0 / rc_lookahead=60 / rc=crf / mbtree=1 / crf=18.0 / qcomp=0.60 / qpmin=3 / qpmax=69 / qpstep=4 / ip_ratio=1.40 / aq=1:1.00
Language                                 : English
Encoded date                             : UTC 2012-10-29 04:24:53
Tagged date                              : UTC 2012-10-29 12:34:03
Color primaries                          : BT.709
Transfer characteristics                 : BT.709
Matrix coefficients                      : BT.709
Audio #1
ID                                       : 2
Format                                   : AAC
Format/Info                              : Advanced Audio Codec
Format profile                           : LC
Codec ID                                 : 40
Duration                                 : 1h 33mn
Bit rate mode                            : Variable
Bit rate                                 : 198 Kbps
Maximum bit rate                         : 317 Kbps
Channel(s)                               : 2 channels
Channel positions                        : Front: L R
Sampling rate                            : 48.0 KHz
Compression mode                         : Lossy
Delay relative to video                  : 78ms
Stream size                              : 132 MiB (1%)
Language                                 : English
Encoded date                             : UTC 2012-10-29 04:24:53
Tagged date                              : UTC 2012-10-29 12:34:02
Audio #2
ID                                       : 3
Format                                   : AC-3
Format/Info                              : Audio Coding 3
Mode extension                           : CM (complete main)
Format settings, Endianness              : Big
Codec ID                                 : ac-3
Duration                                 : 1h 33mn
Bit rate mode                            : Constant
Bit rate                                 : 640 Kbps
Channel(s)                               : 6 channels
Channel positions                        : Front: L C R, Side: L R, LFE
Sampling rate                            : 48.0 KHz
Bit depth                                : 16 bits
Compression mode                         : Lossy
Delay relative to video                  : 78ms
Stream size                              : 428 MiB (3%)
Language                                 : English
Encoded date                             : UTC 2012-10-29 04:24:53
Tagged date                              : UTC 2012-10-29 12:34:02		
Moonrise Kingdom (HD 1080p).m4v 14.648 GB
Gathering some info...

Register and log in Isohunt and see no captcha anymore!

4000 symbols left
Hash e38390304b540843038fc65269d6ab1f257c7c63

Related torrents for "Moonrise Kingdom (HD 1080p).m4v"

Torrent search:

hd fullhd