imdb
rating

5.7
Stitches

Stitches (2012)

Horror

Full description
quality   x264 bd dvdr hd dvdrip fullhd h264

Stitches (2012) BRRip x264 AAC [LTRG]

Size 325.164 MB   0 seeders     Added 2013-02-16 03:57:40

Stream torrent
Starting‥ You need BitLord! Get it from BitLord.com
To download or stream you need BitLord. Visit them at BitLord.com
							General
Complete name : Stitches (2012) BRRip x264 AAC [LTRG].mp4
Format : Flash Video
File size : 310 MiB
Duration : 1h 26mn
Overall bit rate : 503 Kbps

Video
Format : AVC
Format/Info : Advanced Video Codec
Format profile : High@L3.0
Format settings, CABAC : Yes
Format settings, ReFrames : 4 frames
Codec ID : 7
Duration : 1h 26mn
Bit rate : 400 Kbps
Width : 720 pixels
Height : 400 pixels
Display aspect ratio : 16:9
Frame rate mode : Constant
Frame rate : 23.976 fps
Color space : YUV
Chroma subsampling : 4:2:0
Bit depth : 8 bits
Scan type : Progressive
Bits/(Pixel*Frame) : 0.058
Stream size : 247 MiB (80%)
Writing library : x264 core

Audio
Format : AAC
Format/Info : Advanced Audio Codec
Format profile : LC
Codec ID : 10
Duration : 1h 26mn
Bit rate : 94.4 Kbps
Channel(s) : 2 channels
Channel positions : Front: L R
Sampling rate : 44.1 KHz
Compression mode : Lossy
Stream size : 62.0 MiB (20%)
						
Stitches (2012) BRRip x264 AAC [LTRG]/Stitches (2012) BRRip x264 AAC [LTRG].mp4 325.163 MB
Stitches (2012) BRRip x264 AAC [LTRG]/Info.txt 1.602 KB
Gathering some info...

Register and log in Isohunt and see no captcha anymore!

4000 symbols left
Hash e62d032fc59d3b44eb2877ce3474a434ab048029

Related torrents for "Stitches (2012) BRRip x264 AAC [LTRG]"

Torrent search:

x264 2012 bd