imdb
rating

7.1
Battlestar Galactica: Blood & Chrome

Battlestar Galactica: Blood & Chrome (2012)

Drama, Science Fiction

Full description
quality   x264 hd web-rip web-dl bd fullhd

Battlestar Galactica Blood and Chrome 2012 STV DVDRip XviD-MARGiN

Size 733.451 MB   29 seeders     Added 2013-02-16 04:57:18

Stream torrent
Starting‥ You need BitLord! Get it from 1BitLord.com
To download or stream you need BitLord. Visit them at BitLord.com
							http://www.imdb.com/title/tt1704292/The adventures of young William Adama in the First Cylon War. 
Creators:
 David Eick, Michael Taylor
Stars:
 Luke Pasqualino, Ben Cotton, Jill Teed
Country:
USA 
Genres:
 Sci-Fi 
Format : AVI
Format/Info : Audio Video Interleave
File size : 699 MiB
Duration : 1h 33mn
Overall bit rate mode : Variable
Overall bit rate : 1 046 Kbps
Video
ID : 0
Format : MPEG-4 Visual
Format profile : Advanced Simple@L5
Format settings, BVOP : 1
Format settings, QPel : No
Format settings, GMC : No warppoints
Format settings, Matrix : Default (H.263)
Codec ID : XVID
Codec ID/Hint : XviD
Duration : 1h 33mn
Bit rate : 887 Kbps
Width : 640 pixels
Height : 352 pixels
Display aspect ratio : 16:9
Frame rate : 23.976 fps
Color space : YUV
Chroma subsampling : 4:2:0
Bit depth : 8 bits
Scan type : Progressive
Compression mode : Lossy
Bits/(Pixel*Frame) : 0.164
Stream size : 593 MiB (85%)
Writing library : XviD 64
Audio
ID : 1
Format : MPEG Audio
Format version : Version 1
Format profile : Layer 3
Mode : Joint stereo
Mode extension : MS Stereo
Codec ID : 55
Codec ID/Hint : MP3
Duration : 1h 33mn
Bit rate mode : Variable
Bit rate : 146 Kbps
Nominal bit rate : 160 Kbps
Channel(s) : 2 channels
Sampling rate : 48.0 KHz
Compression mode : Lossy
Stream size : 97.7 MiB (14%)
Alignment : Aligned on interleaves
Interleave, duration : 24 ms (0.58 video frame)
Interleave, preload duration : 57 ms
Title : bsg
Writing library : LAME3.99r
Encoding settings : -m j -V 4 -q 2 -lowpass 17.5 --abr 160
Battlestar Galactica Blood and Chrome 2012 STV DVDRip XviD-MARGiN/margin-bsg.avi 733.451 MB
Battlestar Galactica Blood and Chrome 2012 STV DVDRip XviD-MARGiN/margin-bsg.nfo 298 B
Gathering some info...

Register and log in Isohunt and see no captcha anymore!

4000 symbols left
Hash 81f6898e0a4f7c17ab0c6e5531faf591e8eb346e

Related torrents for "Battlestar Galactica Blood and Chrome 2012 STV DVDRip XviD-MARGiN"

Torrent search:

dvdrip 2012