Stage Show

Stage Show (1954)

Celebrities, Family, Music, Talent

Full description

Disco Bazar ( Punjabi Stage Show 2013 )

Size 733.911 MB   0 seeders     Added 2013-02-16 05:19:13

Stream torrent
Starting‥ You need BitLord! Get it from BitLord.com
To download or stream you need BitLord. Visit them at BitLord.com
							
General
Complete name : Disco Bazar 
Format/Info : Audio Video Interleave
File size : 695 MiB
Duration : 1h 45mn
Overall bit rate : 925 Kbps
ID : 0
Format : MPEG-4 Visual
Format profile : Advanced Simple@L5
Format settings, BVOP : 2
Format settings, QPel : No
Format settings, GMC : No warppoints
Format settings, Matrix : Default (H.263)
Codec ID : XVID
Codec ID/Hint : XviD
Duration : 1h 45mn
Bit rate : 792 Kbps
Width : 384 pixels
Height : 286 pixels
Display aspect ratio : 4:3
Frame rate : 20.000 fps
Color space : YUV
Chroma subsampling : 4:2:0
Bit depth : 8 bits
Scan type : Progressive
Compression mode : Lossy
Bits/(Pixel*Frame) : 0.361
Stream size : 595 MiB (86%)
Writing library : XviD 1.2.1 (UTC 2008-12-04)
ID : 1
Format : MPEG Audio
Format version : Version 1
Format profile : Layer 3
Mode : Joint stereo
Codec ID : 55
Codec ID/Hint : MP3
Duration : 1h 45mn
Bit rate mode : Constant
Bit rate : 128 Kbps
Channel(s) : 2 channels
Sampling rate : 44.1 KHz
Compression mode : Lossy
Stream size : 96.2 MiB (14%)
Alignment : Aligned on interleaves
Interleave, duration : 200 ms (4.00 video frames)
Interleave, preload duration : 208 ms
Title : Disco Bazar - Punjabi Stage
Writing library : LAME3.99r
Encoding settings : -m j -V 4 -q 2 -lowpass 17 -b 128*** All Credits Goes To : -=Desi_King=- ***
						
Disco Bazar ( Punjabi Stage Show 2013 )/Disco Bazar.avi 728.959 MB
Disco Bazar ( Punjabi Stage Show 2013 )/Torrent tracked by DesiDhamal.com.txt 503 B
Disco Bazar ( Punjabi Stage Show 2013 )/sample.mkv 4.951 MB
Gathering some info...

Register and log in Isohunt and see no captcha anymore!

4000 symbols left
Hash 63c7af3f8262399fe0e6f6c868cd04152334d0c9

Related torrents for "Disco Bazar ( Punjabi Stage Show 2013 )"

Torrent search:

2013