Rajdhani Express 2013 Hindi Movies HD DVDRip 6ch New Source Sample Included ~ rDX

Size 731.288 MB   1 seeders     Added 2013-02-16 07:21:40

Stream torrent
Starting‚Ä• You need BitLord! Get it from BitLord.com
To download or stream you need BitLord. Visit them at BitLord.com
							Rajdhani Express 2013 Hindi Movies HD DVDRip 6ch New Source Sample Included ~ rDXScreen Shots :http://myimghosting.serveftp.com/13/RajdhaniExpressDVD.htmlhttp://myimghost.cwahi.net/RajdhaniExpressDVD.html
Format : AVI
Format/Info : Audio Video Interleave
File size : 686 MiB
Duration : 1h 56mn
Overall bit rate : 826 Kbps
Writing library : MPlayer
Video
ID : 0
Format : MPEG-4 Visual
Format profile : Advanced Simple@L5
Format settings, BVOP : 3
Format settings, QPel : No
Format settings, GMC : No warppoints
Format settings, Matrix : Default (H.263)
Codec ID : XVID
Codec ID/Hint : XviD
Duration : 1h 56mn
Bit rate : 691 Kbps
Width : 688 pixels
Height : 288 pixels
Display aspect ratio : 2.40:1
Frame rate : 29.970 fps
Color space : YUV
Chroma subsampling : 4:2:0
Bit depth : 8 bits
Scan type : Progressive
Compression mode : Lossy
Bits/(Pixel*Frame) : 0.116
Stream size : 574 MiB (84%)
Writing library : XviD 1.2.1 (UTC 2008-12-04)
Audio
ID : 1
Format : AC-3
Format/Info : Audio Coding 3
Mode extension : CM (complete main)
Format settings, Endianness : Big
Codec ID : 2000
Duration : 1h 56mn
Bit rate mode : Constant
Bit rate : 128 Kbps
Channel(s) : 6 channels
Channel positions : Front: L C R, Side: L R, LFE
Sampling rate : 48.0 KHz
Bit depth : 16 bits
Compression mode : Lossy
Stream size : 106 MiB (16%)
Alignment : Split accross interleaves
Interleave, duration : 500 ms (14.98 video frames)
Interleave, preload duration : 500 ms
						
Rajdhani Express 2013 Hindi Movies HD DVDRip 6ch New Source Sample Included ~ rDX/Rajdhani Express 2013 Hindi Movies HD DVDRip 6ch New Source ~ rDX.avi 718.889 MB
Rajdhani Express 2013 Hindi Movies HD DVDRip 6ch New Source Sample Included ~ rDX/Sample ~ Rajdhani Express 2013 Hindi Movies HD DVDRip 6ch New Source ~ rDX.avi 12.399 MB
Gathering some info...

Register and log in Isohunt and see no captcha anymore!

4000 symbols left
Hash 37e91b9c66b758d0b2451952e1d2b766110c6bd1