imdb
rating

5.3
A Good Day to Die Hard

A Good Day to Die Hard (2013)

Action, Thriller

Full description

A Good Day to Die Hard 2013 D CAMRip RUS

Size 1.469 GB   57 seeders     Added 2013-02-16 10:59:51

Stream torrent
Starting‥ You need BitLord! Get it from 1BitLord.com
To download or stream you need BitLord. Visit them at BitLord.com
							http://www.imdb.com/title/tt1606378/John McClane travels to Russia to help out his seemingly wayward son, Jack, only to discover that Jack is a CIA operative working to prevent a nuclear-weapons heist, causing the father and son to team up against underworld forces. 
Director:
 John Moore
Writers:
 Skip Woods, Roderick Thorp (certain original characters)
Stars:
 Bruce Willis, Jai Courtney, Sebastian Koch
Genres:
 Action | Crime | Thriller 
Country:
USA
Language:
English 
Format : AVI
Format/Info : Audio Video Interleave
File size : 1.37 GiB
Duration : 1h 31mn
Overall bit rate : 2 137 Kbps
Writing application : VirtualDubMod 1.5.10.3 | www.virtualdub-fr.org || (build 2550/release)
Writing library : VirtualDubMod build 2550/release
Video
ID : 0
Format : MPEG-4 Visual
Format profile : Advanced Simple@L5
Format settings, BVOP : 2
Format settings, QPel : No
Format settings, GMC : No warppoints
Format settings, Matrix : Default (MPEG)
Muxing mode : Packed bitstream
Codec ID : XVID
Codec ID/Hint : XviD
Duration : 1h 31mn
Bit rate : 1 936 Kbps
Width : 720 pixels
Height : 304 pixels
Display aspect ratio : 2.35:1
Frame rate : 25.000 fps
Color space : YUV
Chroma subsampling : 4:2:0
Bit depth : 8 bits
Scan type : Progressive
Compression mode : Lossy
Bits/(Pixel*Frame) : 0.354
Stream size : 1.24 GiB (91%)
Writing library : XviD 73
Audio
ID : 1
Format : MPEG Audio
Format version : Version 1
Format profile : Layer 3
Codec ID : 55
Codec ID/Hint : MP3
Duration : 1h 31mn
Bit rate mode : Constant
Bit rate : 192 Kbps
Channel(s) : 2 channels
Sampling rate : 44.1 KHz
Compression mode : Lossy
Stream size : 126 MiB (9%)
Alignment : Split accross interleaves
Interleave, duration : 40 ms (1.00 video frame)
Interleave, preload duration : 500 ms
A Good Day to Die Hard 2013 D CAMRip RUS/Krepkij.oreshek.Horoshij.den.chtoby.umeret.2013.D.CAMRip.1400MB.avi 1.469 GB
Gathering some info...

Register and log in Isohunt and see no captcha anymore!

4000 symbols left
Hash e39b837c003fa6e23aaf18fe4a02541ce19445c9

Related torrents for "A Good Day to Die Hard 2013 D CAMRip RUS"

Torrent search:

russian cam 2013