Trains - Steam Across the Pacific Northwest - DvDRip-xvid^D^

Size 732.524 MB   0 seeders     Added 2013-02-16 12:02:31

Stream torrent
Starting‥ You need BitLord! Get it from 1BitLord.com
To download or stream you need BitLord. Visit them at BitLord.com
    See the SP Daylight 4449 in black paint!
    Witness big steam over Stevens Pass!
    Ride aboard the train along scenic Puget Sound!
    Catch dozens and dozens of spectacular runbys! 

Thrill to the sight of big steam conquering the Pacific Northwest as SP Daylight 4449 takes to the rails once more!

The mighty 4449 was painted black with BNSF decals to head up a BNSF Employee Appreciation Special in July, 2000. Running in excursions over former Burlington Northern trackage, the Daylight treated enthusiastic throngs of spectators to the sights and sounds of thundering steam power.

Pentrex was on the spot, capturing exciting scenes throughout the train's extensive route. Starting in Vancouver, Washington, we follow the train across the state and into British Columbia, Canada, and Idaho, visiting the cities of Tacoma, Seattle, Everett, Bellingham, and Vancouver, B.C. A special highlight is a ride aboard the train along the Puget Sound, from Balmer Yard in Seattle to Everett.

You'll see the EAS traveling over Stevens Pass - what an awesome sight that is! - and at Skykomish and exiting Cascade Tunnel. Continuing eastward, the train stops at Wenatchee and Spokane, then crosses the long bridge over Lake Pend Oreille on its way to Sandpoint, Idaho.

Dozens and dozens of runbys fill the screen with scenic images of steam railroading. There's also plenty of freight and passenger train action along the route, including Amtrak's Talgo trains.





Format                                   : AVI
Format/Info                              : Audio Video Interleave
File size                                : 699 MiB
Duration                                 : 1h 38mn
Overall bit rate                         : 995 Kbps
Writing application                      : VirtualDubMod 1.5.4.1 (build 2178/release)
Writing library                          : VirtualDubMod build 2178/release

Video
ID                                       : 0
Format                                   : MPEG-4 Visual
Format profile                           : Advanced Simple@L5
Format settings, BVOP                    : 1
Format settings, QPel                    : No
Format settings, GMC                     : No warppoints
Format settings, Matrix                  : Custom
Codec ID                                 : XVID
Codec ID/Hint                            : XviD
Duration                                 : 1h 38mn
Bit rate                                 : 795 Kbps
Width                                    : 640 pixels
Height                                   : 480 pixels
Display aspect ratio                     : 4:3
Frame rate                               : 29.970 fps
Color space                              : YUV
Chroma subsampling                       : 4:2:0
Bit depth                                : 8 bits
Scan type                                : Progressive
Compression mode                         : Lossy
Bits/(Pixel*Frame)                       : 0.086
Stream size                              : 558 MiB (80%)
Writing library                          : XviD 1.2.0.dev47 (UTC 2006-11-01)

Audio
ID                                       : 1
Format                                   : AC-3
Format/Info                              : Audio Coding 3
Mode extension                           : CM (complete main)
Format settings, Endianness              : Big
Codec ID                                 : 2000
Duration                                 : 1h 38mn
Bit rate mode                            : Constant
Bit rate                                 : 192 Kbps
Channel(s)                               : 2 channels
Channel positions                        : Front: L R
Sampling rate                            : 48.0 KHz
Bit depth                                : 16 bits
Compression mode                         : Lossy
Stream size                              : 135 MiB (19%)
Alignment                                : Split accross interleaves
Interleave, duration                     : 96 ms (2.88 video frames)
Interleave, preload duration             : 96 ms
		
Trains - Steam Across the Pacific Northwest - DvDRip-xvid^D^/Trains - Steam Across The Pacific Northwest^D^.avi 732.52 MB
Trains - Steam Across the Pacific Northwest - DvDRip-xvid^D^/Steam Across the Pacific Northwest - DvDRip-xvid^D^.nfo 3.556 KB
Trains - Steam Across the Pacific Northwest - DvDRip-xvid^D^/Trains - Steam Across The Pacific Northwest^D^.sfv 236 B
Gathering some info...

Register and log in Isohunt and see no captcha anymore!

4000 symbols left
Hash 35a28fbbab9532aa834ccb4f8178477a349a0d8e