imdb
rating

5.1
Company of Heroes

Company of Heroes (2013)

War

Full description
quality   bd x264 dvdrip h264 hd fullhd

Company Of Heroes 2013 BRRiP XviD-RiPRG

Size 1.478 GB   0 seeders     Added 2013-02-16 15:59:04

Stream torrent
Starting‥ You need BitLord! Get it from BitLord.com
To download or stream you need BitLord. Visit them at BitLord.com
							
Company Of Heroes 2013 BRRiP XviD-RiPRG
American soldiers lost behind enemy lines during the WWII make a horrific discovery: Hitler has a super bomb in development. Against all odds, they set out to find the scientist in charge of the program who is looking to defect.
Format : AVI
Format/Info : Audio Video Interleave
File size : 1.37 GiB
Duration : 1h 40mn
Overall bit rate mode : Variable
Overall bit rate : 1 948 Kbps
Writing application : VirtualDubMod 1.5.10.2 (build 2540/release)
Writing library : VirtualDubMod build 2540/release
Video
ID : 0
Format : MPEG-4 Visual
Format profile : Advanced Simple@L5
Format settings, BVOP : 2
Format settings, QPel : No
Format settings, GMC : No warppoints
Format settings, Matrix : Default (H.263)
Muxing mode : Packed bitstream
Codec ID : XVID
Codec ID/Hint : XviD
Duration : 1h 40mn
Bit rate : 1 823 Kbps
Width : 720 pixels
Height : 304 pixels
Display aspect ratio : 16:9
Frame rate : 23.976 fps
Color space : YUV
Chroma subsampling : 4:2:0
Bit depth : 8 bits
Scan type : Progressive
Compression mode : Lossy
Bits/(Pixel*Frame) : 0.347
Stream size : 1.28 GiB (94%)
Writing library : XviD 64
Audio
ID : 1
Format : MPEG Audio
Format version : Version 1
Format profile : Layer 3
Mode : Joint stereo
Codec ID : 55
Codec ID/Hint : MP3
Duration : 1h 40mn
Bit rate mode : Variable
Bit rate : 113 Kbps
Minimum bit rate : 32.0 Kbps
Channel(s) : 2 channels
Sampling rate : 44.1 KHz
Compression mode : Lossy
Stream size : 81.2 MiB (6%)
Alignment : Aligned on interleaves
Interleave, duration : 26 ms (0.63 video frame)
Interleave, preload duration : 169 ms
Writing library : LAME3.98r
Company Of Heroes 2013 BRRiP XviD-RiPRG/Company Of Heroes 2013 BRRiP XviD-RiPRG.avi 1.468 GB
Company Of Heroes 2013 BRRiP XviD-RiPRG/Company Of Heroes 2013 BRRiP XviD-RiPRG.nfo 3.086 KB
Company Of Heroes 2013 BRRiP XviD-RiPRG/Sample/Sample.avi 8.662 MB
Gathering some info...

Register and log in Isohunt and see no captcha anymore!

4000 symbols left
Hash 66b2f26f61688f4164e8fecd648224683b475556

Related torrents for "Company Of Heroes 2013 BRRiP XviD-RiPRG"

Torrent search:

bd 2013