imdb
rating

6.9
Rake

Rake (2014)

Comedy

Full description

Rake.S02E06.PDTV.XviD-PJA.avi

Size 578.02 MB   0 seeders     Added 2013-02-16 17:24:44

Stream torrent
Starting‥ You need BitLord! Get it from BitLord.com
To download or stream you need BitLord. Visit them at BitLord.com
General
Complete name                            : Rake.S02E06.PDTV.XviD-PJA.avi
Format                                   : AVI
Format/Info                              : Audio Video Interleave
File size                                : 551 MiB
Duration                                 : 55mn 14s
Overall bit rate                         : 1 395 Kbps

Video
ID                                       : 0
Format                                   : xvid
Codec ID                                 : xvid
Duration                                 : 55mn 13s
Bit rate                                 : 1 254 Kbps
Width                                    : 640 pixels
Height                                   : 360 pixels
Display aspect ratio                     : 16:9
Frame rate                               : 25.000 fps
Bits/(Pixel*Frame)                       : 0.218
Stream size                              : 496 MiB (90%)

Audio
ID                                       : 1
Format                                   : MPEG Audio
Format version                           : Version 1
Format profile                           : Layer 3
Mode                                     : Joint stereo
Mode extension                           : MS Stereo
Codec ID                                 : 55
Codec ID/Hint                            : MP3
Duration                                 : 55mn 14s
Bit rate mode                            : Constant
Bit rate                                 : 128 Kbps
Channel(s)                               : 2 channels
Sampling rate                            : 48.0 KHz
Compression mode                         : Lossy
Stream size                              : 50.6 MiB (9%)
Alignment                                : Aligned on interleaves
Interleave, duration                     : 24 ms (0.60 video frame)-------------------------------------Torrent downloaded from http://thepiratebay.se
Rake.S02E06.PDTV.XviD-PJA.avi 578.02 MB
Gathering some info...

Register and log in Isohunt and see no captcha anymore!

4000 symbols left
Hash 2f1c7caacd85ab09d8f5a731bd623966691584ae

Related torrents for "Rake.S02E06.PDTV.XviD-PJA.avi"

Torrent search:

season 02 hdtv episode 06