imdb
rating

5.6
Kill for Me

Kill for Me (2013)

Drama, Thriller

Full description

Kill.for.Me.2013.WEBRip.XViD-juggs

Size 741.402 MB   0 seeders     Added 2013-02-16 19:30:38

Stream torrent
Starting‥ You need BitLord! Get it from BitLord.com
To download or stream you need BitLord. Visit them at BitLord.com
Format : AVI
Format/Info : Audio Video Interleave
File size : 702 MiB
Duration : 1h 34mn
Overall bit rate : 1 034 Kbps
Writing library : VirtualDub build 32842/release

Video
ID : 0
Format : MPEG-4 Visual
Format profile : Advanced Simple@L5
Format settings, BVOP : 4
Format settings, QPel : No
Format settings, GMC : No warppoints
Format settings, Matrix : Default (H.263)
Muxing mode : Packed bitstream
Codec ID : XVID
Codec ID/Hint : XviD
Duration : 1h 34mn
Bit rate : 896 Kbps
Width : 640 pixels
Height : 352 pixels
Display aspect ratio : 16:9
Frame rate : 23.976 fps
Color space : YUV
Chroma subsampling : 4:2:0
Bit depth : 8 bits
Scan type : Progressive
Compression mode : Lossy
Bits/(Pixel*Frame) : 0.166
Stream size : 609 MiB (87%)
Writing library : XviD 64

Audio
ID : 1
Format : MPEG Audio
Format version : Version 1
Format profile : Layer 3
Codec ID : 55
Codec ID/Hint : MP3
Duration : 1h 34mn
Bit rate mode : Constant
Bit rate : 128 Kbps
Channel(s) : 2 channels
Sampling rate : 44.1 KHz
Compression mode : Lossy
Stream size : 86.9 MiB (12%)
Alignment : Split accross interleaves
Interleave, duration : 42 ms (1.00 video frame)
Interleave, preload duration : 500 ms
Writing library : LAME3.99r
Encoding settings : -m s -V 4 -q 3 -lowpass 17 -b 128


Plot
Two roommates with abusive men in their pasts consider murder as an option to help settle each others problems.

 
image 
image 
image		
Kill.for.Me.2013.WEBRip.XViD-juggs/Kill.for.Me.2013.WEBRip.XViD-juggs.avi 736.257 MB
Kill.for.Me.2013.WEBRip.XViD-juggs/Torrent Downloaded From ExtraTorrent.com.txt 339 B
Kill.for.Me.2013.WEBRip.XViD-juggs/sample.avi 5.145 MB
Gathering some info...

Register and log in Isohunt and see no captcha anymore!

4000 symbols left
Hash 4557fffb6fa644d57a43b3179102291bf6a17d3d

Related torrents for "Kill.for.Me.2013.WEBRip.XViD-juggs"

Torrent search:

web-rip 2013