imdb
rating

5.5
The Twilight Saga: Breaking Dawn - Part 2

The Twilight Saga: Breaking Dawn - Part 2 (2012)

Adventure, Drama, Fantasy, Romance

Full description
quality   dvdrip x264 hd bd screener

The.Twilight.Saga.Breaking.Dawn.Part.2.2012.DVDRip.XviD-juggs

Size 743.472 MB   74 seeders     Added 2013-02-16 20:31:32

Stream torrent
Starting‥ You need BitLord! Get it from BitLord.com
To download or stream you need BitLord. Visit them at BitLord.com
Source : DVDR-AN0NYM0US

Format : AVI
Format/Info : Audio Video Interleave
File size : 703 MiB
Duration : 1h 55mn
Overall bit rate : 853 Kbps
Writing library : VirtualDub build 32842/release

Video
ID : 0
Format : MPEG-4 Visual
Format profile : Advanced Simple@L5
Format settings, BVOP : 4
Format settings, QPel : No
Format settings, GMC : No warppoints
Format settings, Matrix : Default (H.263)
Muxing mode : Packed bitstream
Codec ID : XVID
Codec ID/Hint : XviD
Duration : 1h 55mn
Bit rate : 716 Kbps
Width : 640 pixels
Height : 356 pixels
Display aspect ratio : 16:9
Frame rate : 23.976 fps
Color space : YUV
Chroma subsampling : 4:2:0
Bit depth : 8 bits
Scan type : Progressive
Compression mode : Lossy
Bits/(Pixel*Frame) : 0.131
Stream size : 590 MiB (84%)
Writing library : XviD 64

Audio
ID : 1
Format : MPEG Audio
Format version : Version 1
Format profile : Layer 3
Codec ID : 55
Codec ID/Hint : MP3
Duration : 1h 55mn
Bit rate mode : Constant
Bit rate : 128 Kbps
Channel(s) : 2 channels
Sampling rate : 44.1 KHz
Compression mode : Lossy
Stream size : 105 MiB (15%)
Alignment : Split accross interleaves
Interleave, duration : 42 ms (1.00 video frame)
Interleave, preload duration : 500 ms
Writing library : LAME3.99r
Encoding settings : -m s -V 4 -q 3 -lowpass 17 -b 128


Plot
After the birth of Renesmee, the Cullens gather other vampire clans in order to protect the child from a false allegation that puts the family in front of the Volturi.
 
image 
image 
image 
image
		
The.Twilight.Saga.Breaking.Dawn.Part.2.2012.DVDRip.XviD-juggs/The.Twilight.Saga.Breaking.Dawn.Part.2.2012.DVDRip.XviD-juggs.avi 737.139 MB
The.Twilight.Saga.Breaking.Dawn.Part.2.2012.DVDRip.XviD-juggs/Torrent Downloaded From ExtraTorrent.com.txt 339 B
The.Twilight.Saga.Breaking.Dawn.Part.2.2012.DVDRip.XviD-juggs/sample.avi 6.332 MB
Gathering some info...

Register and log in Isohunt and see no captcha anymore!

4000 symbols left
Hash a32b6807d3c5a26e02d33d610b8cd6caac0f34a5

Related torrents for "The.Twilight.Saga.Breaking.Dawn.Part.2.2012.DVDRip.XviD-juggs"

Torrent search:

dvdrip 2012