imdb
rating

6.7
Project X

Project X (2012)

Comedy, Crime

Full description

Project X (2012) DVDRip 352p [Zend]

Size 1.064 GB   0 seeders     Added 2013-02-16 22:19:40

Stream torrent
Starting‥ You need BitLord! Get it from 1BitLord.com
To download or stream you need BitLord. Visit them at BitLord.com
							Description
Poster: image
Release date: 2012
Genre: Comedy
Plot: 3 high school seniors throw a birthday party to make a name for themselves. As the night progresses, things spiral out of control as word of the party spreads.
--------------------------------
Runtime: 1 h 28 min
Rating: 6.6/10
Votes: 82,056
Writer(s)/Director(s): Matt Drake, Michael Bacall/Nima Nourizadeh
Actors: Thomas Mann, Oliver Cooper, Jonathan Daniel Brown, Dax Flame
Trailer: image
Mediainfo:
General
Complete name : 	Project X (2012) DVDRip 352p [Zend]/Project X (2012) DVDRip 352p [Zend].mp4
Format : 	MPEG-4
Format profile : 	Base Media
Codec ID : 	isom
File size : 	1 002 MiB
Duration : 	1h 27mn
Overall bit rate mode : 	Variable
Overall bit rate : 	1 594 Kbps
Writing application : 	Lavf53.21.1
Video
ID : 	1
Format : 	AVC
Format/Info : 	Advanced Video Codec
Format profile : 	Main@L3.0
Format settings, CABAC : 	Yes
Format settings, ReFrames : 	3 frames
Codec ID : 	avc1
Codec ID/Info : 	Advanced Video Coding
Duration : 	1h 27mn
Bit rate : 	1 500 Kbps
Width : 	624 pixels
Height : 	352 pixels
Display aspect ratio : 	16:9
Frame rate mode : 	Constant
Frame rate : 	23.976 fps
Color space : 	YUV
Chroma subsampling : 	4:2:0
Bit depth : 	8 bits
Scan type : 	Progressive
Bits/(Pixel*Frame) : 	0.285
Stream size : 	916 MiB (91%)
Writing library : 	x264 core 123 r2189 35cf912
Encoding settings : 	cabac=1 / ref=3 / deblock=1:0:0 / analyse=0x1:0x111 / me=hex / subme=7 / psy=1 / psy_rd=1.00:0.00 / mixed_ref=0 / me_range=16 / chroma_me=1 / trellis=1 / 8x8dct=0 / cqm=0 / deadzone=21,11 / fast_pskip=1 / chroma_qp_offset=-2 / threads=6 / sliced_threads=0 / nr=0 / decimate=1 / interlaced=0 / bluray_compat=0 / constrained_intra=0 / bframes=3 / b_pyramid=0 / b_adapt=1 / b_bias=0 / direct=1 / weightb=0 / open_gop=1 / weightp=2 / keyint=250 / keyint_min=23 / scenecut=40 / intra_refresh=0 / rc_lookahead=40 / rc=abr / mbtree=1 / bitrate=1500 / ratetol=1.0 / qcomp=0.60 / qpmin=0 / qpmax=69 / qpstep=4 / ip_ratio=1.25 / aq=1:1.00
Audio
ID : 	2
Format : 	MPEG Audio
Format version : 	Version 1
Format profile : 	Layer 3
Mode : 	Joint stereo
Mode extension : 	MS Stereo
Codec ID : 	6B
Duration : 	1h 27mn
Bit rate mode : 	Variable
Bit rate : 	131 Kbps
Channel(s) : 	2 channels
Sampling rate : 	48.0 KHz
Compression mode : 	Lossy
Delay relative to video : 	42ms
Stream size : 	82.6 MiB (8%)
Project X (2012) DVDRip 352p [Zend]/Piczend.com free image hosting.txt 68 B
Project X (2012) DVDRip 352p [Zend]/Project X (2012) DVDRip 352p [Zend] (Sample).mp4 12.94 MB
Project X (2012) DVDRip 352p [Zend]/Project X (2012) DVDRip 352p [Zend].mp4 1.051 GB
Gathering some info...

Register and log in Isohunt and see no captcha anymore!

4000 symbols left
Hash 1e70aece57835b02d56e8d1e05c517770a99d565

Related torrents for "Project X (2012) DVDRip 352p [Zend]"

Torrent search:

dvdrip 2012