Mai 2013 Hindi Movies HD DVDRip XviD New Source Sample Included ~ rDX

Size 725.016 MB   0 seeders     Added 2013-02-17 00:38:56

Stream torrent
Starting‥ You need BitLord! Get it from BitLord.com
To download or stream you need BitLord. Visit them at BitLord.com
							Mai 2013 Hindi Movies HD DVDRip XviD New Source Sample Included ~ rDXScreen Shots :http://myimghosting.serveftp.com/13/Mai.htmlhttp://myimghost.cwahi.net/Mai.html
Format : AVI
Format/Info : Audio Video Interleave
File size : 678 MiB
Duration : 1h 38mn
Overall bit rate mode : Variable
Overall bit rate : 963 Kbps
Writing library : MPlayer
Video
ID : 0
Format : MPEG-4 Visual
Format profile : Advanced Simple@L5
Format settings, BVOP : 1
Format settings, QPel : No
Format settings, GMC : No warppoints
Format settings, Matrix : Default (H.263)
Codec ID : XVID
Codec ID/Hint : XviD
Duration : 1h 38mn
Bit rate : 830 Kbps
Width : 640 pixels
Height : 272 pixels
Display aspect ratio : 2.35:1
Frame rate : 25.000 fps
Color space : YUV
Chroma subsampling : 4:2:0
Bit depth : 8 bits
Scan type : Progressive
Compression mode : Lossy
Bits/(Pixel*Frame) : 0.191
Stream size : 585 MiB (86%)
Writing library : XviD 1.2.1 (UTC 2008-12-04)
Audio
ID : 1
Format : MPEG Audio
Format version : Version 1
Format profile : Layer 3
Mode : Joint stereo
Codec ID : 55
Codec ID/Hint : MP3
Duration : 1h 38mn
Bit rate mode : Variable
Bit rate : 120 Kbps
Channel(s) : 2 channels
Sampling rate : 48.0 KHz
Compression mode : Lossy
Stream size : 84.5 MiB (12%)
Alignment : Aligned on interleaves
Interleave, duration : 24 ms (0.60 video frame)
Interleave, preload duration : 387 ms
						
Mai 2013 Hindi Movies HD DVDRip XviD New Source Sample Included ~ rDX/Mai 2013 Hindi Movies HD DVDRip XviD New Source ~ rDX.avi 711.256 MB
Mai 2013 Hindi Movies HD DVDRip XviD New Source Sample Included ~ rDX/Sample ~ Mai 2013 Hindi Movies HD DVDRip XviD New Source ~ rDX.avi 13.759 MB
Gathering some info...

Register and log in Isohunt and see no captcha anymore!

4000 symbols left
Hash 337bba6db3d0b1de2aee4892e1b2b5f7b840caf2