A Good Day to Die Hard (2013) DVDRip_XviD.AC3 - HMCX

Size 594.617 MB   0 seeders     Added 2013-02-17 04:46:59

To download or stream you need BitLord. Visit them at BitLord.com
IMDb:  http://www.imdb.com/title/tt1606378/
-------------------------------------------

A Good Day to Die Hard (2013) DVDRip_XviD.AC3 - HMCX
----------------------------------------------------

Sample....................: Yes

Sample Size...............: 53.4 MiB
------------------------------------

Details:
-------

Video
ID                               : 0
Format                           : MPEG-4 Visual
Format profile                   : AdvancedSimple@L5
Format settings, BVOP            : Yes
Format settings, QPel            : No
Format settings, GMC             : No warppoints
Format settings, Matrix          : Custom
Codec ID                         : XVID
Codec ID/Hint                    : XviD
Duration                         : 1h 37mn
Bit rate                         : 1 631 Kbps
Width                            : 1080 pixels
Height                           : 720 pixels
Display aspect ratio             : 2.35:1
Frame rate                       : 23.976 fps
Resolution                       : 24 bits
Colorimetry                      : 4:2:0
Scan type                        : Progressive
Bits/(Pixel*Frame)               : 0.311
Stream size                      : 514 MiB (99%)
Writing library                  : XviD 58

Audio
ID                               : 1
Format                           : AC-3
Format/Info                      : Audio Coding 3
Codec ID                         : 2000
Duration                         : 1h 37mn
Bit rate mode                    : Constant
Bit rate                         : 384 Kbps
Channel(s)                       : 6 channels
Channel positions                : Front: L C R, Surround: L R, LFE
Sampling rate                    : 48.0 KHz
Stream size                      : 293 MiB (19%)
Alignment                        : Aligned on interleaves
Interleave, duration             : 64 ms (1.54 video frames)
Interleave, preload duration     : 192 ms
-----------------------------------------

Plot:
----

John McClane travels to Russia to help out his seemingly wayward 
son, Jack, only to discover that Jack is a CIA operative working 
to prevent a nuclear-weapons heist, causing the father and son 
to team up against underworld forces. 
------------------------------------

Screenshots:
-----------
 
image 
image 
image 
image 
image 
image 
image 
image 
image 
image
-----------------------------------------------
		
A Good Day to Die Hard (2013) DVDRip_XviD.AC3 - HMCX/1.jpg 39.861 KB
A Good Day to Die Hard (2013) DVDRip_XviD.AC3 - HMCX/10.jpg 38.504 KB
A Good Day to Die Hard (2013) DVDRip_XviD.AC3 - HMCX/2.jpg 53.205 KB
Gathering some info...

Register and log in Isohunt and see no captcha anymore!

4000 symbols left
Hash f7ff38328366093673666d6589e294bc2d781508

Related torrents for "A Good Day to Die Hard (2013) DVDRip_XviD.AC3 - HMCX"

Torrent search:

2013