Aladdin.and.the.Death.Lamp.2012.WebRip.XviD.Ac3.Feel-Free

Size 1.534 GB   0 seeders     Added 2013-02-17 04:57:18

Stream torrent
Starting‥ You need BitLord! Get it from BitLord.com
To download or stream you need BitLord. Visit them at BitLord.com
							http://www.imdb.com/title/tt2415710/
Source:720p.WEB-DL.H264-NGB,Thanks
Encoder:Tony
Format : AVI
Format/Info : Audio Video Interleave
File size : 1.43 GiB
Duration : 1h 26mn
Overall bit rate : 2 374 Kbps
Writing application : VirtualDubMod 1.5.10.2 (build 2540/release)
Writing library : VirtualDubMod build 2540/release
Video
ID : 0
Format : MPEG-4 Visual
Format profile : Advanced Simple@L5
Format settings, BVOP : 1
Format settings, QPel : No
Format settings, GMC : No warppoints
Format settings, Matrix : Default (H.263)
Codec ID : XVID
Codec ID/Hint : XviD
Duration : 1h 26mn
Bit rate : 1 981 Kbps
Width : 640 pixels
Height : 360 pixels
Display aspect ratio : 16:9
Frame rate : 23.976 fps
Color space : YUV
Chroma subsampling : 4:2:0
Bit depth : 8 bits
Scan type : Progressive
Compression mode : Lossy
Bits/(Pixel*Frame) : 0.359
Stream size : 1.19 GiB (83%)
Writing library : XviD 1.2.1 (UTC 2008-12-04)
Audio
ID : 1
Format : AC-3
Format/Info : Audio Coding 3
Mode extension : CM (complete main)
Codec ID : 2000
Duration : 1h 26mn
Bit rate mode : Constant
Bit rate : 384 Kbps
Channel(s) : 6 channels
Channel positions : Front: L C R, Side: L R, LFE
Sampling rate : 48.0 KHz
Bit depth : 16 bits
Compression mode : Lossy
Stream size : 236 MiB (16%)
Alignment : Aligned on interleaves
Interleave, duration : 42 ms (1.00 video frame)
Interleave, preload duration : 512 ms
Greets:
 CRYS,MiNiSTRY,INSPiRAL,IMAGINE,LKRG,ADTRG,FXG,3Li,FLAWL3SS,CrEwSaDe,TA,iLLUSiON,EMBER,HOPE,GooN,BBnRG,NOGRP,ETRG,BHRG,iLLUMiNATi,MiSTERE.ViSiON,DTRG SAFCuk009,LU,TheFalcon007,MYSTiC,PrisM,Noir,WBZ,LAP,Rx,Kingdom,SAFCuk009+Fabreezy,HDLiTE,TWiZTED,ETRG.ELEKTRI4KA,MAGNAT,CM8
 And to all the other p2p grps past and present 
Make sure its a real Feel-Free release @ http://extratorrent.com
Thanks to all who promotes release Feel-Free !!!
Aladdin.and.the.Death.Lamp.2012.WebRip.XviD.Ac3.Feel-Free/aatdl.jpg 120.928 KB
Aladdin.and.the.Death.Lamp.2012.WebRip.XviD.Ac3.Feel-Free/Aladdin.and.the.Death.Lamp.2012.WebRip.XviD.Ac3.Feel-Free.avi 1.533 GB
Aladdin.and.the.Death.Lamp.2012.WebRip.XviD.Ac3.Feel-Free/Aladdin.and.the.Death.Lamp.2012.WebRip.XviD.Ac3.Feel-Free.nfo 3.581 KB
Gathering some info...

Register and log in Isohunt and see no captcha anymore!

4000 symbols left
Hash 1b2a50afb474cff215a48131ce1ae5cf929b5858

Related torrents for "Aladdin.and.the.Death.Lamp.2012.WebRip.XviD.Ac3.Feel-Free"

Torrent search:

2012 web-rip