Tom

Tom (1994)

Comedy

Full description

Company Of Heroes - Tom Sizemore - 2013.mp4

Size 864.654 MB   0 seeders     Added 2013-02-17 05:32:48

Stream torrent
Starting‥ You need BitLord! Get it from BitLord.com
To download or stream you need BitLord. Visit them at BitLord.com
Company Of Heroes 2013 - IMPROVED VOLUME  824MB

General
Complete name                    : Company Of Heroes -  Tom Sizemore - 2013.mp4
Format                           : MPEG-4
Format profile                   : Base Media / Version 2
Codec ID                         : mp42
File size                        : 825 MiB
Duration                         : 1h 40mn
Overall bit rate                 : 1 148 Kbps
Encoded date                     : UTC 2013-02-17 08:32:26
Tagged date                      : UTC 2013-02-17 08:34:39
Writing application              : mp4creator 1.6.1d

Video
ID                               : 1
Format                           : MPEG-4 Visual
Format profile                   : Simple@L1
Format settings, BVOP            : No
Format settings, QPel            : No
Format settings, GMC             : No warppoints
Format settings, Matrix          : Default (H.263)
Codec ID                         : 20
Duration                         : 1h 40mn
Bit rate mode                    : Variable
Bit rate                         : 1 020 Kbps
Maximum bit rate                 : 20.9 Mbps
Width                            : 720 pixels
Height                           : 400 pixels
Display aspect ratio             : 16:9
Original display aspect ratio    : 16:9
Frame rate mode                  : Constant
Frame rate                       : 25.000 fps
Color space                      : YUV
Chroma subsampling               : 4:2:0
Bit depth                        : 8 bits
Scan type                        : Progressive
Compression mode                 : Lossy
Bits/(Pixel*Frame)               : 0.142
Stream size                      : 733 MiB (89%)
Language                         : English
Encoded date                     : UTC 2013-02-17 08:32:26
Tagged date                      : UTC 2013-02-17 08:34:31

Audio
ID                               : 2
Format                           : AAC
Format/Info                      : Advanced Audio Codec
Format profile                   : LC
Codec ID                         : 40
Duration                         : 1h 40mn
Bit rate mode                    : Variable
Bit rate                         : 126 Kbps
Maximum bit rate                 : 190 Kbps
Channel(s)                       : 2 channels
Channel positions                : Front: L R
Sampling rate                    : 44.1 KHz
Compression mode                 : Lossy
Stream size                      : 90.2 MiB (11%)
Language                         : English
Encoded date                     : UTC 2013-02-17 08:34:31
Tagged date                      : UTC 2013-02-17 08:34:39


Cast: Tom Sizemore, Chad Michael Collins, Vinnie Jones

Plot: American soldiers lost behind enemy lines during the WWII make a horrific discovery: Hitler has a super bomb in development. Against all odds, they set out 
to find the scientist i n charge of the program who is looking to defect. 


Screenshots:
 
http://bayimg.com/oAJbgAaEL 
http://bayimg.com/oaJbiAAEL 
http://bayimg.com/oaJBjAAel 
http://bayimg.com/OAJBlAAEl		
Company Of Heroes - Tom Sizemore - 2013.mp4 864.654 MB
Gathering some info...

Register and log in Isohunt and see no captcha anymore!

4000 symbols left
Hash 9d21f569e42b9733e7959691d5eee903c48fef9b

Related torrents for "Company Of Heroes - Tom Sizemore - 2013.mp4"

Torrent search:

2013