Warm Bodies (2013) DVDRip_XviD.AC3 - PGZX

Size 554.362 MB   0 seeders     Added 2013-02-17 05:27:56

To download or stream you need BitLord. Visit them at BitLord.com
IMDb:  http://www.imdb.com/title/tt1588173/
-------------------------------------------
Warm Bodies (2013) DVDRip_XviD.AC3 - PGZX
-----------------------------------------
Sample................: Yes
Sample Size...........: 15.5 MiB
--------------------------------
Details:
-------
Video
ID                               : 0
Format                           : MPEG-4 Visual
Format profile                   : AdvancedSimple@L5
Format settings, BVOP            : Yes
Format settings, QPel            : No
Format settings, GMC             : No warppoints
Format settings, Matrix          : Custom
Codec ID                         : XVID
Codec ID/Hint                    : XviD
Duration                         : 1h 38mn
Bit rate                         : 1 631 Kbps
Width                            : 720 pixels
Height                           : 480 pixels
Display aspect ratio             : 2.35:1
Frame rate                       : 23.976 fps
Resolution                       : 24 bits
Colorimetry                      : 4:2:0
Scan type                        : Progressive
Bits/(Pixel*Frame)               : 0.311
Stream size                      : 512 MiB (99%)
Writing library                  : XviD 58
Audio
ID                               : 1
Format                           : AC-3
Format/Info                      : Audio Coding 3
Codec ID                         : 2000
Duration                         : 1h 38mn
Bit rate mode                    : Constant
Bit rate                         : 384 Kbps
Channel(s)                       : 6 channels
Channel positions                : Front: L C R, Surround: L R, LFE
Sampling rate                    : 48.0 KHz
Stream size                      : 293 MiB (19%)
Alignment                        : Aligned on interleaves
Interleave, duration             : 64 ms (1.54 video frames)
Interleave, preload duration     : 192 ms
-----------------------------------------
Plot:
----
After R (a highly unusual zombie) saves Julie from an attack, the two 
form a relationship that sets in motion a sequence of events that 
might transform the entire lifeless world.  
-----------------------------------------
Screenshots:
-----------
----------------------------------------------		
Warm Bodies (2013) DVDRip_XviD.AC3 - PGZX/1.jpg 25.485 KB
Warm Bodies (2013) DVDRip_XviD.AC3 - PGZX/2.jpg 25.406 KB
Warm Bodies (2013) DVDRip_XviD.AC3 - PGZX/3.jpg 28.567 KB
Gathering some info...

Register and log in Isohunt and see no captcha anymore!

4000 symbols left
Hash a1785f89e17b4292ce60a53b686a675987f71178