imdb
rating

8.9
Pulp Fiction

Pulp Fiction (1994)

Crime, Thriller

Full description
quality   dvdr x264 bd dvdrip

Pulp Fiction (1994)

Size 2.057 GB   161 seeders     Added 2013-02-17 12:58:04

Stream torrent
Starting‥ You need BitLord! Get it from BitLord.com
10
To download or stream you need BitLord. Visit them at BitLord.com
							Pulp Fiction - Quentin Tarantino (1994) [XviD - Italian English Ac3 5.1 - Sub Ita Eng] MIRCrew [TNT Village] 
Titolo originale 	Pulp Fiction
Lingua originale 	inglese
Paese di produzione 	USA
Anno 	1994
Durata 	154 min
Rapporto 	2,35 : 1
Genere 	thriller, gangster movie, humour nero
Regia 	Quentin Tarantino
Soggetto 	Quentin Tarantino, Roger Avary
Sceneggiatura 	Quentin Tarantino, Roger Avary
Produttore 	Lawrence Bender
Produttore esecutivo 	Danny DeVito
Michael Shamberg
Stacey Sher
Casa di produzione 	A Band Apart, Jersey Films, Miramax Films
Distribuzione (Italia) 	Cecchi Gori Group
Fotografia 	Andrzej Sekuła
Montaggio 	Sally Menke
Musiche 	AA. VV.
Tema musicale 	Misirlou (Dick Dale & His Del-Tones)
Scenografia 	David Wasco
Costumi 	Betsy Heimann
Trucco 	Greg Nicotero
[spoiler]La pellicola rilanciò John Travolta, ormai in ombra da anni, e consacrò la giovane e già quotata Uma Thurman. Le interpretazioni di entrambi meritarono una candidatura all'Oscar 
rispettivamente per miglior attore protagonista e miglior attrice non protagonista. Anche Samuel L. Jackson ricevette la candidatura come miglior attore non protagonista.
Inoltre, il film si aggiudicò la Palma d'oro al festival di Cannes del 1994 e permise a Quentin Tarantino e Roger Avary di ottenere il premio per la miglior sceneggiatura originale agli 
Oscar del 1995, su ben 7 nomination, tra cui oltre a quelle già citate, quelle a miglior film, miglior regista e miglior montaggio.
Uscito il 14 ottobre 1994 negli Stati Uniti, arrivò nelle sale italiane il 16 dicembre dello stesso anno.
In Italia il film ottenne il visto censura e venne vietato ai minori di 18 anni, ma dal 1997 il divieto è stato tolto, consentendo così la trasmissione tv in seconda serata.
Il film è l'ultimo capitolo della cosiddetta "trilogia pulp" di Quentin Tarantino, preceduto da Le iene (1992) e Una vita al massimo (1993).
L'American Film Institute lo ha posizionato al novantaquattresimo posto nella lista dei cento migliori film americani di tutti i tempi e settimo nella categoria gangster. [/spoiler]
 John Travolta: Vincent Vega
 Samuel L. Jackson: Jules Winnfield
 Tim Roth: Zucchino
 Amanda Plummer: Coniglietta
 Bruce Willis: Butch Coolidge
 Ving Rhames: Marcellus Wallace
 Uma Thurman: Mia Wallace
 Harvey Keitel: Winston Wolf
 Christopher Walken: cap. Koons
 Eric Stoltz: Lance
 Rosanna Arquette: Jody
 Quentin Tarantino: Jimmie Dimmick
 Maria de Medeiros: Fabienne
 Peter Greene: Zed
 Duane Whitaker: Maynard
 Angela Jones: Esmeralda Villalobos
 Steve Buscemi: Buddy Holly, il cameriere
 Paul Calderon: Paul
 Frank Whaley: Brett
 Burr Steers: "Frangettone"
 Stephen Hibbert: lo "storpio"
 Julia Sweeney: Raquel
 Robert Arquette: quarto uomo
Doppiatori italiani
 Claudio Sorrentino: Vincent Vega
 Luca Ward: Jules Winnfield
 Massimo Lodolo: Zucchino
 Antonella Rinaldi: Coniglietta
 Mario Cordova: Butch Coolidge
 Eugenio Marinelli: Marcellus Wallace
 Loredana Nicosia: Mia Wallace
 Pietro Biondi: Winston Wolf
 Carlo Sabatini: cap. Koons
 Mauro Gravina: Lance
 Roberta Paladini: Jody
 Luciano Roffi: Jimmie Dimmick
 Claudia Razzi: Fabienne
 Raffaele Uzzi: Maynard
 Teo Bellia: Zed
 Barbara Castracane: Esmeralda Villalobos
 Edoardo Nevola: Buddy Holly, il cameriere
 Gaetano Varcasia: Paul
 Niseem Onorato: Brett
 Danilo De Girolamo: "Frangettone"
 Roberto Gammino: Marvin
All'Hawthorne Grill, una piccola caffetteria nella periferia di Los Angeles, due rapinatori, "Zucchino" e "Coniglietta", stanno architettando il loro prossimo colpo, quando, su iniziativa 
del primo, decidono di rapinare proprio il locale nel quale si trovano.
Dopo i titoli iniziali la scena si sposta su un'automobile dove due personaggi legati alla malavita si muovono di buon'ora per le strade di Los Angeles vestiti in abito scuro. Si tratta di 
Vincent Vega e Jules Winnfield, diretti a recuperare una misteriosa valigetta sottratta al loro capo Marcellus Wallace da alcuni giovanotti. Giunti nell'appartamento nel quale fare 
irruzione, i due entrano tranquillamente, recuperano la valigetta e uccidono due dei tre ragazzi presenti, non prima che Jules abbia recitato un sermone da un passo della 
Bibbia...................
Jules Winnfield and Vincent Vega are two hitmen who are out to retrieve a suitcase stolen from their employer, mob boss Marsellus Wallace. Wallace has also asked Vincent to take his wife 
Mia out a few days later when Wallace himself will be out of town. Butch Coolidge is an aging boxer who is paid by Wallace to lose his next fight. The lives of these seemingly unrelated 
people are woven together comprising of a series of funny, bizarre and uncalled-for incidents.
General
Complete name : Pulp Fiction (1994).avi
Format : AVI
Format/Info : Audio Video Interleave
File size : 1.91 GiB
Duration : 2h 28mn
Overall bit rate : 1 842 Kbps
Writing application : VirtualDubMod 1.5.4.1 (build 2178/release)
Writing library : VirtualDubMod build 2178/release
Video
ID : 0
Format : MPEG-4 Visual
Format profile : Advanced Simple@L5
Format settings, BVOP : Yes
Format settings, QPel : No
Format settings, GMC : No warppoints
Format settings, Matrix : Custom
Codec ID : XVID
Codec ID/Hint : XviD
Duration : 2h 28mn
Bit rate : 1 066 Kbps
Width : 720 pixels
Height : 320 pixels
Display aspect ratio : 2.25:1
Frame rate : 25.000 fps
Color space : YUV
Chroma subsampling : 4:2:0
Bit depth : 8 bits
Scan type : Progressive
Bits/(Pixel*Frame) : 0.185
Stream size : 1.10 GiB (58%)
Writing library : XviD 1.2.1 (UTC 2008-12-04)
Audio #1
ID : 1
Format : AC-3
Format/Info : Audio Coding 3
Mode extension : CM (complete main)
Codec ID : 2000
Duration : 2h 28mn
Bit rate mode : Constant
Bit rate : 384 Kbps
Channel(s) : 6 channels
Channel positions : Front: L C R, Side: L R, LFE
Sampling rate : 48.0 KHz
Bit depth : 16 bits
Stream size : 407 MiB (21%)
Alignment : Aligned on interleaves
Interleave, duration : 96 ms (2.40 video frames)
Interleave, preload duration : 96 ms
Language : Italian
Audio #2
ID : 2
Format : AC-3
Format/Info : Audio Coding 3
Mode extension : CM (complete main)
Codec ID : 2000
Duration : 2h 28mn
Bit rate mode : Constant
Bit rate : 384 Kbps
Channel(s) : 6 channels
Channel positions : Front: L C R, Side: L R, LFE
Sampling rate : 48.0 KHz
Bit depth : 16 bits
Stream size : 407 MiB (21%)
Alignment : Aligned on interleaves
Interleave, duration : 96 ms (2.40 video frames)
Interleave, preload duration : 96 ms
Language : English	
Pulp Fiction (1994)/Pulp Fiction (1994).avi 2.046 GB
Pulp Fiction (1994)/Pulp Fiction (1994).idx 130.03 KB
Pulp Fiction (1994)/Pulp Fiction (1994).sub 10.66 MB
Gathering some info...

Register and log in Isohunt and see no captcha anymore!

4000 symbols left
Hash 9ec250a761be86921a2d36adb4fb1493761c7b1d

Related torrents for "Pulp Fiction (1994)"

Torrent search:

1994