imdb
rating

6.3
Mountain

Mountain (2015)

Drama

Full description
quality   hdtv dvdr dvdrip x264 hd bd

Trains - (Diesels) - The Blue Mountains Vol.2 ^D^.avi

Size 732.803 MB   0 seeders     Added 2013-02-17 14:28:02

Stream torrent
Starting‥ You need BitLord! Get it from 1BitLord.com
To download or stream you need BitLord. Visit them at BitLord.com
La Grande to Hinkle
See the Union Pacific fight and win as it takes on the Blue Mountains of eastern Oregon - the toughest challenge UP faces! Loaded with spectacular cab rides, Volume II hits all the highlights of this dramatic mountain district from La Grande to Hinkle.

Scale the Blue Mountains from La Grande through Hilgard and Motanic to the summit at Kamela. Ride the cab of a new GE Dash 8. Get an engineers view from a helper set on the rear of a UP freight. Experience Meacham Creek Canyon, the Umatilla River, Pendleton, and much more all in this exciting video!

The result of meticulous and superior production techniques, this outstanding video is 60 minutes of colorful action and full Hi-Fi stereo sound. Its a rich story told as only the award-winning Video Rails can tell it. A story youll be proud to own!

    Enjoy dramatic cab rides on a new GE Dash 8-40C
    Feel the power as SD-40-2s, C36-7s, 8-40-Cs and SD-60s take on UPs roughest helper district.
    Thrill to exhilarating pacing scenes of the newest SD-60.
    Watch Trailer trains, container trains, double stacks, grain trains, soda ash trains, auto rack trains and AMTRAK all take on the terrain.
    Dont miss your chance to experience the Blue Mountains as never before.





Format                                   : AVI
Format/Info                              : Audio Video Interleave
File size                                : 699 MiB
Duration                                 : 58mn 3s
Overall bit rate                         : 1 683 Kbps
Writing application                      : VirtualDubMod 1.5.4.1 (build 2178/release)
Writing library                          : VirtualDubMod build 2178/release

Video
ID                                       : 0
Format                                   : MPEG-4 Visual
Format profile                           : Advanced Simple@L5
Format settings, BVOP                    : 1
Format settings, QPel                    : No
Format settings, GMC                     : No warppoints
Format settings, Matrix                  : Custom
Codec ID                                 : XVID
Codec ID/Hint                            : XviD
Duration                                 : 58mn 3s
Bit rate                                 : 1 419 Kbps
Width                                    : 640 pixels
Height                                   : 480 pixels
Display aspect ratio                     : 4:3
Frame rate                               : 29.970 fps
Color space                              : YUV
Chroma subsampling                       : 4:2:0
Bit depth                                : 8 bits
Scan type                                : Progressive
Compression mode                         : Lossy
Bits/(Pixel*Frame)                       : 0.154
Stream size                              : 589 MiB (84%)
Writing library                          : XviD 1.2.0.dev47 (UTC 2006-11-01)

Audio
ID                                       : 1
Format                                   : AC-3
Format/Info                              : Audio Coding 3
Mode extension                           : CM (complete main)
Format settings, Endianness              : Big
Codec ID                                 : 2000
Duration                                 : 58mn 3s
Bit rate mode                            : Constant
Bit rate                                 : 256 Kbps
Channel(s)                               : 2 channels
Channel positions                        : Front: L R
Sampling rate                            : 48.0 KHz
Bit depth                                : 16 bits
Compression mode                         : Lossy
Delay relative to video                  : 10ms
Stream size                              : 106 MiB (15%)
Alignment                                : Split accross interleaves
Interleave, duration                     : 96 ms (2.88 video frames)
Interleave, preload duration             : 96 ms
Language                                 : English-------------------------------------Torrent downloaded from http://thepiratebay.se
Trains - (Diesels) - The Blue Mountains Vol.2 ^D^.avi 732.803 MB
Gathering some info...

Register and log in Isohunt and see no captcha anymore!

4000 symbols left
Hash 1d52153d9c8c24a9eacb00bf26e7d0dfcf8f33e6

Related torrents for "Trains - (Diesels) - The Blue Mountains Vol.2 ^D^.avi"