imdb
rating

7.4
Drugstore Cowboy

Drugstore Cowboy (1989)

Crime, Drama

Full description
quality   dvdrip dvdr x264 hd bd

Drugstore Cowboy (1989)-alE13

Size 2.139 GB   0 seeders     Added 2013-02-17 15:20:49

Stream torrent
Starting‥ You need BitLord! Get it from BitLord.com
To download or stream you need BitLord. Visit them at BitLord.com
							The file containing - sample!!!
Plik zawiera - sample !!!
produkcja: USA
gatunek: Dramat, Kryminał, Obyczajowy
czas trwania: 100
reżyseria: Gus Van Sant
zdjęcia: Robert D. Yeoman
muzyka: Elliot Goldenthal
scenariusz Gus Van Sant, Daniel Yost
Opis:
A realistic road movie about a drug addict, his 'family', and their 
inevitable decline into crime.
Jeden z najgłośniejszych filmów amerykańskich, którego scenariusz 
powstał na kanwie niepublikowanej autobiograficznej książki narkomana 
Jamesa Fogle a. Jest rok 1971, Portland w stanie Oregon. Bob (Matt Dillon), 
młody handlarz antykami, wraz z żoną Diane (Kelly Lynch) oraz dwoma 
przyjaciółmi dokonują włamań do aptek i szpitali w celu zdobycia środków 
odurzających. Ich beztroskie życie zmienia się w chwili, gdy jeden z nich 
w przydrożnym motelu umiera z powodu przedawkowania. Spanikowani, zakopują 
ciało w odludnym miejscu.
Obsada:
Eric Hull: Narkoman
John Kelly : Policjant
Kelly Lynch : Dianne
James LeGros: Rick
Dane techniczne:
Drugstore Cowboy (1989)-alE13.mkv
Format : Matroska
Format version : Version 2
File size : 1.95 GiB
Duration : 1h 41mn
Overall bit rate : 2 744 Kbps
Movie name : Drugstore Cowboy (1989)-alE13
Encoded date : UTC 2013-02-17 19:48:43
Writing application : mkvmerge v5.8.0
Writing library : libebml v1.2.3 + libmatroska v1.3.0
Video
ID : 1
Format : AVC
Format/Info : Advanced Video Codec
Format profile : Main@L4.0
Format settings, CABAC : Yes
Format settings, ReFrames : 2 frames
Muxing mode : Header stripping
Codec ID : V_MPEG4/ISO/AVC
Duration : 1h 41mn
Bit rate : 2 500 Kbps
Width : 1 920 pixels
Height : 1 080 pixels
Display aspect ratio : 16:9
Frame rate mode : Constant
Frame rate : 24.000 fps
Color space : YUV
Chroma subsampling : 4:2:0
Bit depth : 8 bits
Scan type : Progressive
Bits/(Pixel*Frame) : 0.050
Stream size : 1.75 GiB (90%)
Writing library : x264 core 112 r1834 a51816a
Audio
ID : 2
Format : AC-3
Format/Info : Audio Coding 3
Mode extension : CM (complete main)
Format settings, Endianness : Big
Muxing mode : Header stripping
Codec ID : A_AC3
Duration : 1h 41mn
Bit rate mode : Constant
Bit rate : 224 Kbps
Channel(s) : 2 channels
Channel positions : Front: L R
Sampling rate : 48.0 KHz
Bit depth : 16 bits
Compression mode : Lossy
Stream size : 163 MiB (8%)
Default : Yes
Forced : No
Text #1
ID : 3
Format : VobSub
Muxing mode : zlib
Codec ID : S_VOBSUB
Codec ID/Info : The same subtitle format used on DVDs
Language : Polish
Text #2
ID : 4
Format : VobSub
Muxing mode : zlib
Codec ID : S_VOBSUB
Codec ID/Info : The same subtitle format used on DVDs
Language : English
Menu
00:00:00.000 : en:00:00:00.000
00:03:24.996 : en:00:03:24.996
00:07:59.729 : en:00:07:59.729
00:16:38.706 : en:00:16:38.706
00:21:45.638 : en:00:21:45.638
00:25:03.377 : en:00:25:03.377
00:31:57.958 : en:00:31:57.958
00:40:04.611 : en:00:40:04.611
00:48:52.471 : en:00:48:52.471
00:59:08.628 : en:00:59:08.628
01:09:16.819 : en:01:09:16.819
01:13:50.593 : en:01:13:50.593
01:17:01.158 : en:01:17:01.158
01:22:17.266 : en:01:22:17.266
01:29:55.557 : en:01:29:55.557
01:35:05.199 : en:01:35:05.199
Drugstore Cowboy (1989)-alE13/sub/Drugstore Cowboy (1989)-alE13_pl.sub 8.239 MB
Drugstore Cowboy (1989)-alE13/sub/Drugstore Cowboy (1989)-alE13_eng.sub 7.451 MB
Drugstore Cowboy (1989)-alE13/sub/Drugstore Cowboy (1989)-alE13_pl.srt 92.664 KB
Gathering some info...

Register and log in Isohunt and see no captcha anymore!

4000 symbols left
Hash 29cec2ed4f8ceebb2edfa82f7574ead4c083a8a4

Related torrents for "Drugstore Cowboy (1989)-alE13"

Torrent search:

1989