JasonMraz-TheWomanILove-musicvideos-hq.net.mp4

Size 53.867 MB   0 seeders     Added 2013-02-18 00:16:53

Stream torrent
Starting‚Ä• You need BitLord! Get it from BitLord.com
To download or stream you need BitLord. Visit them at BitLord.com
General

Format                         : MPEG-4
Format profile                 : Base Media
Codec ID                       : isom
File size                      : 51.4 MiB
Duration                       : 3mn 36s
Overall bit rate mode          : Variable
Overall bit rate               : 1 992 Kbps
Encoded date                   : UTC 2013-02-17 03:46:46
Tagged date                    : UTC 2013-02-17 03:46:46

Video
ID                             : 1
Format                         : AVC
Format/Info                    : Advanced Video Codec
Format profile                 : High@L3.0
Format settings, CABAC         : Yes
Format settings, ReFrames      : 2 frames
Codec ID                       : avc1
Codec ID/Info                  : Advanced Video Coding
Duration                       : 3mn 36s
Bit rate                       : 1 806 Kbps
Maximum bit rate               : 5 495 Kbps
Width                          : 720 pixels
Height                         : 480 pixels
Display aspect ratio           : 16:9
Original display aspect ratio  : 16:9
Frame rate mode                : Constant
Frame rate                     : 23.976 fps
Standard                       : NTSC
Color space                    : YUV
Chroma subsampling             : 4:2:0
Bit depth                      : 8 bits
Scan type                      : Progressive
Bits/(Pixel*Frame)             : 0.218
Stream size                    : 46.6 MiB (91%)


Audio
ID                             : 2
Format                         : AAC
Format/Info                    : Advanced Audio Codec
Format profile                 : LC
Codec ID                       : 40
Duration                       : 3mn 36s
Bit rate mode                  : Variable
Bit rate                       : 183 Kbps
Maximum bit rate               : 242 Kbps
Channel(s)                     : 2 channels
Channel positions              : Front: L R
Sampling rate                  : 44.1 KHz
Compression mode               : Lossy
Stream size                    : 4.72 MiB (9%)		
JasonMraz-TheWomanILove-musicvideos-hq.net.mp4 53.867 MB
Gathering some info...

Register and log in Isohunt and see no captcha anymore!

4000 symbols left
Hash 5de0cce03f23860919ed5eb0cc96c773182e7012