JesseyYJoyFt.MarioDomm-Llorar-musicvideos-hq.net.mp4

Size 115.284 MB   0 seeders     Added 2013-02-18 00:16:48

Stream torrent
Starting‥ You need BitLord! Get it from 1BitLord.com
To download or stream you need BitLord. Visit them at BitLord.com
General

Format                         : MPEG-4
Format profile                 : Base Media
Codec ID                       : isom
File size                      : 110 MiB
Duration                       : 5mn 0s
Overall bit rate mode          : Variable
Overall bit rate               : 3 070 Kbps
Encoded date                   : UTC 2013-02-12 18:44:58
Tagged date                    : UTC 2013-02-12 18:44:58

Video
ID                             : 1
Format                         : AVC
Format/Info                    : Advanced Video Codec
Format profile                 : High@L3.0
Format settings, CABAC         : Yes
Format settings, ReFrames      : 2 frames
Codec ID                       : avc1
Codec ID/Info                  : Advanced Video Coding
Duration                       : 5mn 0s
Bit rate                       : 2 879 Kbps
Maximum bit rate               : 7 135 Kbps
Width                          : 720 pixels
Height                         : 480 pixels
Display aspect ratio           : 16:9
Original display aspect ratio  : 16:9
Frame rate mode                : Constant
Frame rate                     : 23.976 fps
Standard                       : NTSC
Color space                    : YUV
Chroma subsampling             : 4:2:0
Bit depth                      : 8 bits
Scan type                      : Progressive
Bits/(Pixel*Frame)             : 0.347
Stream size                    : 103 MiB (94%)

Audio
ID                             : 2
Format                         : AAC
Format/Info                    : Advanced Audio Codec
Format profile                 : LC
Codec ID                       : 40
Duration                       : 5mn 0s
Bit rate mode                  : Variable
Bit rate                       : 188 Kbps
Maximum bit rate               : 223 Kbps
Channel(s)                     : 2 channels
Channel positions              : Front: L R
Sampling rate                  : 44.1 KHz
Compression mode               : Lossy
Stream size                    : 6.72 MiB (6%)		
JesseyYJoyFt.MarioDomm-Llorar-musicvideos-hq.net.mp4 115.284 MB
Gathering some info...

Register and log in Isohunt and see no captcha anymore!

4000 symbols left
Hash f7044b4f259e69db6471ca2d852a98ab91f75bca