JulietaVenegas-TuveParaDar-musicvideos-hq.net.mp4

Size 109.37 MB   0 seeders     Added 2013-02-18 00:16:40

Stream torrent
Starting‥ You need BitLord! Get it from BitLord.com
To download or stream you need BitLord. Visit them at BitLord.com
General

Format                         : MPEG-4
Format profile                 : Base Media
Codec ID                       : isom
File size                      : 104 MiB
Duration                       : 4mn 9s
Overall bit rate mode          : Variable
Overall bit rate               : 3 508 Kbps
Encoded date                   : UTC 2013-02-12 18:38:46
Tagged date                    : UTC 2013-02-12 18:38:46

Video
ID                             : 1
Format                         : AVC
Format/Info                    : Advanced Video Codec
Format profile                 : High@L3.0
Format settings, CABAC         : Yes
Format settings, ReFrames      : 2 frames
Codec ID                       : avc1
Codec ID/Info                  : Advanced Video Coding
Duration                       : 4mn 9s
Bit rate                       : 3 313 Kbps
Maximum bit rate               : 6 703 Kbps
Width                          : 720 pixels
Height                         : 480 pixels
Display aspect ratio           : 16:9
Original display aspect ratio  : 16:9
Frame rate mode                : Constant
Frame rate                     : 23.976 fps
Standard                       : NTSC
Color space                    : YUV
Chroma subsampling             : 4:2:0
Bit depth                      : 8 bits
Scan type                      : Progressive
Bits/(Pixel*Frame)             : 0.400
Stream size                    : 98.5 MiB (94%)


Audio
ID                             : 2
Format                         : AAC
Format/Info                    : Advanced Audio Codec
Format profile                 : LC
Codec ID                       : 40
Duration                       : 4mn 9s
Bit rate mode                  : Variable
Bit rate                       : 192 Kbps
Maximum bit rate               : 214 Kbps
Channel(s)                     : 2 channels
Channel positions              : Front: L R
Sampling rate                  : 44.1 KHz
Compression mode               : Lossy
Stream size                    : 5.70 MiB (5%)		
JulietaVenegas-TuveParaDar-musicvideos-hq.net.mp4 109.37 MB
Gathering some info...

Register and log in Isohunt and see no captcha anymore!

4000 symbols left
Hash cc060b7fd505c11b1034c9babd49c09a4284c263