Rihanna-Diamonds-musicvideos-hq.net.mp4

Size 92.86 MB   19 seeders     Added 2013-02-18 00:16:21

Stream torrent
Starting‥ You need BitLord! Get it from BitLord.com
10
To download or stream you need BitLord. Visit them at BitLord.com
General

Format                         : MPEG-4
Format profile                 : Base Media
Codec ID                       : isom
File size                      : 88.6 MiB
Duration                       : 4mn 42s
Overall bit rate mode          : Variable
Overall bit rate               : 2 627 Kbps
Encoded date                   : UTC 2013-02-17 03:59:37
Tagged date                    : UTC 2013-02-17 03:59:37

Video
ID                             : 1
Format                         : AVC
Format/Info                    : Advanced Video Codec
Format profile                 : High@L3.0
Format settings, CABAC         : Yes
Format settings, ReFrames      : 2 frames
Codec ID                       : avc1
Codec ID/Info                  : Advanced Video Coding
Duration                       : 4mn 42s
Bit rate                       : 2 436 Kbps
Maximum bit rate               : 9 064 Kbps
Width                          : 720 pixels
Height                         : 480 pixels
Display aspect ratio           : 16:9
Original display aspect ratio  : 16:9
Frame rate mode                : Constant
Frame rate                     : 23.976 fps
Standard                       : NTSC
Color space                    : YUV
Chroma subsampling             : 4:2:0
Bit depth                      : 8 bits
Scan type                      : Progressive
Bits/(Pixel*Frame)             : 0.294
Stream size                    : 82.1 MiB (93%)


Audio
ID                             : 2
Format                         : AAC
Format/Info                    : Advanced Audio Codec
Format profile                 : LC
Codec ID                       : 40
Duration                       : 4mn 42s
Bit rate mode                  : Variable
Bit rate                       : 187 Kbps
Maximum bit rate               : 217 Kbps
Channel(s)                     : 2 channels
Channel positions              : Front: L R
Sampling rate                  : 44.1 KHz
Compression mode               : Lossy
Stream size                    : 6.30 MiB (7%)		
Rihanna-Diamonds-musicvideos-hq.net.mp4 92.86 MB
Gathering some info...

Register and log in Isohunt and see no captcha anymore!

4000 symbols left
Hash d8d2a0974743f524405548c25ec3b709301bd5dc