Thalia-Manias-musicvideos-hq.net.mp4

Size 131.137 MB   0 seeders     Added 2013-02-18 00:16:00

Stream torrent
Starting‥ You need BitLord! Get it from 1BitLord.com
To download or stream you need BitLord. Visit them at BitLord.com
General

Format                         : MPEG-4
Format profile                 : Base Media
Codec ID                       : isom
File size                      : 125 MiB
Duration                       : 3mn 56s
Overall bit rate mode          : Variable
Overall bit rate               : 4 435 Kbps
Encoded date                   : UTC 2013-02-17 03:53:51
Tagged date                    : UTC 2013-02-17 03:53:51

Video
ID                             : 1
Format                         : AVC
Format/Info                    : Advanced Video Codec
Format profile                 : High@L3.0
Format settings, CABAC         : Yes
Format settings, ReFrames      : 2 frames
Codec ID                       : avc1
Codec ID/Info                  : Advanced Video Coding
Duration                       : 3mn 56s
Bit rate                       : 4 239 Kbps
Maximum bit rate               : 6 728 Kbps
Width                          : 720 pixels
Height                         : 480 pixels
Display aspect ratio           : 16:9
Original display aspect ratio  : 16:9
Frame rate mode                : Constant
Frame rate                     : 29.970 fps
Standard                       : NTSC
Color space                    : YUV
Chroma subsampling             : 4:2:0
Bit depth                      : 8 bits
Scan type                      : Progressive
Bits/(Pixel*Frame)             : 0.409
Stream size                    : 120 MiB (96%)


Audio
ID                             : 2
Format                         : AAC
Format/Info                    : Advanced Audio Codec
Format profile                 : LC
Codec ID                       : 40
Duration                       : 3mn 56s
Bit rate mode                  : Variable
Bit rate                       : 192 Kbps
Maximum bit rate               : 222 Kbps
Channel(s)                     : 2 channels
Channel positions              : Front: L R
Sampling rate                  : 44.1 KHz
Compression mode               : Lossy
Stream size                    : 5.39 MiB (4%)		
Thalia-Manias-musicvideos-hq.net.mp4 131.137 MB
Gathering some info...

Register and log in Isohunt and see no captcha anymore!

4000 symbols left
Hash 1a0123f64a8bf5f7cb5b20f1717bf6519bcbb9c7