[ www.Speed.Cd ] - WWE.Elimination.Chamber.2013.PPV.HDTV.x264-IWStreams Verified

Size 1.903 GB   0 seeders     Added 2013-02-18 00:46:00

Stream torrent
Starting‚Ä• You need BitLord! Get it from BitLord.com
To download or stream you need BitLord. Visit them at BitLord.com
- 
http://www.Speed.Cd
 
http://www.Speed.Cd       the fast  and The Hottest Private Tracker on the net

Please Seed back to make the speed Faster!!
 ............ NFO .............
-General
Complete name                            : mediainfo.mp4
File size                                : 3.01 KiB

General
Complete name                            : WWE.Elimination.Chamber.2013.PPV.HDTV.x264-IWStreams.mp4
Format                                   : MPEG-4
Format profile                           : Base Media
Codec ID                                 : isom
File size                                : 1.77 GiB
Duration                                 : 2h 54mn
Overall bit rate                         : 1 457 Kbps
Writing application                      : Lavf54.0.100

Video
ID                                       : 1
Format                                   : AVC
Format/Info                              : Advanced Video Codec
Format profile                           : High@L3.0
Format settings, CABAC                   : Yes
Format settings, ReFrames                : 4 frames
Codec ID                                 : avc1
Codec ID/Info                            : Advanced Video Coding
Duration                                 : 2h 54mn
Bit rate                                 : 1 317 Kbps
Width                                    : 704 pixels
Height                                   : 400 pixels
Display aspect ratio                     : 16:9
Frame rate mode                          : Constant
Frame rate                               : 25.000 fps
Color space                              : YUV
Chroma subsampling                       : 4:2:0
Bit depth                                : 8 bits
Scan type                                : Progressive
Bits/(Pixel*Frame)                       : 0.187
Stream size                              : 1.60 GiB (90%)
Writing library                          : x264 core 128 r2216 198a7ea
Encoding settings                        : cabac=1 / ref=1 / deblock=1:0:0 / analyse=0x3:0x3 / me=dia / subme=1 / psy=1 / psy_rd=1.00:0.00 / mixed_ref=0 / me_range=16 / chroma_me=1 / trellis=0 / 8x8dct=1 / cqm=0 / deadzone=21,11 / fast_pskip=1 / chroma_qp_offset=0 / threads=3 / lookahead_threads=1 / sliced_threads=0 / nr=0 / decimate=1 / interlaced=0 / bluray_compat=0 / constrained_intra=0 / bframes=3 / b_pyramid=2 / b_adapt=1 / b_bias=0 / direct=1 / weightb=1 / open_gop=0 / weightp=1 / keyint=250 / keyint_min=25 / scenecut=40 / intra_refresh=0 / rc_lookahead=0 / rc=crf / mbtree=0 / crf=23.0 / qcomp=0.60 / qpmin=0 / qpmax=69 / qpstep=4 / vbv_maxrate=1345 / vbv_bufsize=1345 / crf_max=0.0 / nal_hrd=none / ip_ratio=1.40 / pb_ratio=1.30 / aq=1:1.00

Audio
ID                                       : 2
Format                                   : AAC
Format/Info                              : Advanced Audio Codec
Format profile                           : LC
Codec ID                                 : 40
Duration                                 : 2h 54mn
Bit rate mode                            : Constant
Bit rate                                 : 132 Kbps
Channel(s)                               : 2 channels
Channel positions                        : Front: L R
Sampling rate                            : 44.1 KHz
Compression mode                         : Lossy
Stream size                              : 164 MiB (9%)		
[ www.Speed.Cd ] - WWE.Elimination.Chamber.2013.PPV.HDTV.x264-IWStreams/mediainfo.nfo 3.197 KB
[ www.Speed.Cd ] - WWE.Elimination.Chamber.2013.PPV.HDTV.x264-IWStreams/WWE.Elimination.Chamber.2013.PPV.HDTV.x264-IWStreams.mp4 1.902 GB
[ www.Speed.Cd ] - WWE.Elimination.Chamber.2013.PPV.HDTV.x264-IWStreams/WWE.Elimination.Chamber.2013.PPV.HDTV.x264-IWStreams_s.jpg 206.277 KB
Gathering some info...

Register and log in Isohunt and see no captcha anymore!

4000 symbols left
Hash 0be795b854561dc8c5799a9a0dc139a0f07f3ea1