imdb
rating

5.4
Fun Size

Fun Size (2012)

Comedy

Full description
quality   screener dvdrip bd cam telesync

Fun Size 2012 BRRip 720p x264 AAC - PRiSTiNE [P2PDL] Verified

Size 515.623 MB   0 seeders     Added 2013-02-18 02:31:18

Stream torrent
Starting‥ You need BitLord! Get it from BitLord.com
To download or stream you need BitLord. Visit them at BitLord.com
_________________________  Visit us at _________________________
  
http://p2pdl.com  ____________________________  http://p2pdl.com

 
image

Fun Size 2012  BRRip 720p x264 AAC - PRiSTiNE [P2PDL]
				
Genre: Comedy
Wren's Halloween plans go awry when she's made to babysit her brother, 
who disappears into a sea of trick-or-treaters. With her best friend and two nerds at her side, 
she needs to find her brother before her mom finds out he's missing.
Director: Josh Schwartz
Stars: Victoria Justice, Johnny Knoxville, Chelsea Handler
Rated: N/A

Info:  
http://www.imdb.com/title/tt1663143/
 
http://www.rottentomatoes.com/m/fun_size/


General
Complete name                  : Fun Size 2012  BRRip 720p x264 AAC - PRiSTiNE [P2PDL].mp4
Format                         : MPEG-4
Format profile                 : Base Media / Version 2
Codec ID                       : mp42
File size                      : 485 MiB
Duration                       : 1h 26mn
Overall bit rate mode          : Variable
Overall bit rate               : 785 Kbps

Source                         : 1080p.BluRay.x264-SPARKS (Thanks)

Video
Format                         : AVC
Bit rate                       : 700 Kbps
Width                          : 1 280 pixels
Height                         : 544 pixels
Display aspect ratio           : 2.35:1
Frame rate mode                : Variable
Frame rate                     : 23.976 fps
Scan type                      : Progressive
Bits/(Pixel*Frame)             : 0.042
Stream size                    : 432 MiB (89%)
Writing library                : x264 core 129

Audio
Format                         : AAC
Bit rate                       : 79.9 Kbps
Channel(s)                     : 2 channels
Channel positions              : Front: L R
Sampling rate                  : 48.0 KHz
Stream size                    : 49.4 MiB (10%)
Language                       : English

Subtitle                       : Yes ( English)


Screens: 
image 
image 
image 
image

Thumbs: 
image

----------------------------------------------------------------------------------------------------


Recommend to you to use latest version of VLC player. Install K-Lite Codec Pack or shark007 codecs
in case of any kind of problem in playback (For non-VLC Media Player users). Alternatively, install
Core AVC codecs, the fastest decoder that there is coupled with Community Center Codec Pack and play
on Windows Media Player Classic. Check sample to be sure.
Enjoy!

Greets to: VYTO, a2zRG, MusiK_KinG, Neon, Kuroyukihime, TorDigger, Ash968, StyLishSaLH and staff members at
ExtraTorrent, TPB, H33T, KAT, 1337x, PublicHD, Ahashare, BTScene, SilverTorrent, LimeTorrents, TorrentMafia,
P2PDL, and all others.

Encoder Notes: Looking For Early Access To Anything You Can Provide DVDScr, R5, DVDR, BluRay, Direct
Audio, Early Music Releases, Seedboxes, Dedicated Servers anything u can provide, Advance / Promo CDs/
DVDs. If You Got anything to offer contact me at "prg@hush.com".		
Fun Size 2012 BRRip 720p x264 AAC - PRiSTiNE [P2PDL]/Fun Size 2012 BRRip 720p x264 AAC - PRiSTiNE [P2PDL]/Fun Size 2012 BRRip 720p x264 AAC - PRiSTiNE [P2PDL].mp4 508.487 MB
Fun Size 2012 BRRip 720p x264 AAC - PRiSTiNE [P2PDL]/Cover, Preview, Screenshots/Preview.mp4 6.05 MB
Fun Size 2012 BRRip 720p x264 AAC - PRiSTiNE [P2PDL]/Cover, Preview, Screenshots/2.jpg 252.671 KB
Gathering some info...

Register and log in Isohunt and see no captcha anymore!

4000 symbols left
Hash 3063d1c4b6cb1227de1451bc148975ae5481bd80

Related torrents for "Fun Size 2012 BRRip 720p x264 AAC - PRiSTiNE [P2PDL]"

Torrent search:

x264 hd 2012 bd