imdb
rating

8.5

Full description

Lost.Girl.S03E06.HDTV.DivX-Atilla82

Size 366.699 MB   0 seeders     Added 2013-02-18 09:16:08

Stream torrent
Starting‥ You need BitLord! Get it from BitLord.com
To download or stream you need BitLord. Visit them at BitLord.com
Lost Girl S03E06 HDTV DivX Atilla82

 
http://www.imdb.com/title/tt1429449/


General
Complete name : lost.girl.s03e06.hdtv.divx-atilla82.avi
Format : AVI
Format/Info : Audio Video Interleave
File size : 350 MiB
Duration : 43mn 56s
Overall bit rate : 1 112 Kbps
Writing application : VirtualDubMod 1.5.10.2 (build 2540/release)
Writing library : VirtualDubMod build 2540/release

Video
ID : 0
Format : MPEG-4 Visual
Format settings, BVOP : 1
Format settings, QPel : No
Format settings, GMC : No warppoints
Format settings, Matrix : Default (H.263)
Muxing mode : Packed bitstream
Codec ID : DX50
Codec ID/Hint : DivX 5
Duration : 43mn 56s
Bit rate : 975 Kbps
Width : 680 pixels
Height : 382 pixels
Display aspect ratio : 16:9
Frame rate : 23.976 fps
Color space : YUV
Chroma subsampling : 4:2:0
Bit depth : 8 bits
Scan type : Progressive
Compression mode : Lossy
Bits/(Pixel*Frame) : 0.157
Stream size : 306 MiB (88%)
Writing library : DivX 2682

Audio
ID : 1
Format : MPEG Audio
Format version : Version 1
Format profile : Layer 3
Codec ID : 55
Codec ID/Hint : MP3
Duration : 43mn 56s
Bit rate mode : Constant
Bit rate : 128 Kbps
Channel(s) : 2 channels
Sampling rate : 48.0 KHz
Compression mode : Lossy
Stream size : 40.2 MiB (12%)
Alignment : Aligned on interleaves
Interleave, duration : 42 ms (1.00 video frame)
Interleave, preload duration : 504 ms




SCREENS 
image




		
Lost.Girl.S03E06.HDTV.DivX-Atilla82/lost.girl.s03e06.hdtv.divx-atilla82.avi 366.529 MB
Lost.Girl.S03E06.HDTV.DivX-Atilla82/screenshots.jpg 170.328 KB
Gathering some info...

Register and log in Isohunt and see no captcha anymore!

4000 symbols left
Hash 5800b41cddfcbbb48d419d3baa1b35e1d80ca218

Related torrents for "Lost.Girl.S03E06.HDTV.DivX-Atilla82"

Torrent search:

season 03 hdtv episode 06