imdb
rating

 
The Fall

The Fall (2016)

Documentary

Full description
quality   x264 fullhd bd hd dvdrip

The Fall Of The Essex Boys 2013 DVDRip XViD -juggs

Size 742.374 MB   0 seeders     Added 2013-02-18 09:30:38

Stream torrent
Starting‥ You need BitLord! Get it from BitLord.com
To download or stream you need BitLord. Visit them at BitLord.com
 image


Source : DVDR L-S


Format : AVI
Format/Info : Audio Video Interleave
File size : 702 MiB
Duration : 1h 27mn
Overall bit rate : 1 126 Kbps
Writing library : VirtualDub build 32842/release

Video
ID : 0
Format : MPEG-4 Visual
Format profile : Advanced Simple@L5
Format settings, BVOP : 4
Format settings, QPel : No
Format settings, GMC : No warppoints
Format settings, Matrix : Default (H.263)
Muxing mode : Packed bitstream
Codec ID : XVID
Codec ID/Hint : XviD
Duration : 1h 27mn
Bit rate : 988 Kbps
Width : 640 pixels
Height : 256 pixels
Display aspect ratio : 2.500
Frame rate : 25.000 fps
Color space : YUV
Chroma subsampling : 4:2:0
Bit depth : 8 bits
Scan type : Progressive
Compression mode : Lossy
Bits/(Pixel*Frame) : 0.241
Stream size : 616 MiB (88%)
Writing library : XviD 64

Audio
ID : 1
Format : MPEG Audio
Format version : Version 1
Format profile : Layer 3
Codec ID : 55
Codec ID/Hint : MP3
Duration : 1h 27mn
Bit rate mode : Constant
Bit rate : 128 Kbps
Channel(s) : 2 channels
Sampling rate : 44.1 KHz
Compression mode : Lossy
Stream size : 79.8 MiB (11%)
Alignment : Split accross interleaves
Interleave, duration : 40 ms (1.00 video frame)
Interleave, preload duration : 500 ms
Writing library : LAME3.99r

Plot
The rise and fall of the Essex Boys gang - the drugs, the violence and, of course, the murders. The real story is the most shocking of all.


 
image 
image 
image		
The Fall Of The Essex Boys 2013 DVDRip XViD -juggs/The Fall Of The Essex Boys 2013 DVDRip XViD -juggs.avi 735.927 MB
The Fall Of The Essex Boys 2013 DVDRip XViD -juggs/Torrent Downloaded From ExtraTorrent.com.txt 339 B
The Fall Of The Essex Boys 2013 DVDRip XViD -juggs/sample.avi 6.447 MB
Gathering some info...

Register and log in Isohunt and see no captcha anymore!

4000 symbols left
Hash 582c4302f0ba39168e770950545d06ac9d1f6551

Related torrents for "The Fall Of The Essex Boys 2013 DVDRip XViD -juggs"

Torrent search:

dvdrip 2013