imdb
rating

7.2
Chasing Mavericks

Chasing Mavericks (2012)

Drama

Full description

Chasing.Mavericks.2012.BRRip.XviD.AC3-BTRG.avi

Size 734.689 MB   0 seeders     Added 2013-02-18 10:02:10

Stream torrent
Starting‥ You need BitLord! Get it from 1BitLord.com
10
To download or stream you need BitLord. Visit them at BitLord.com
 http://bayimg.com/DajpjAAeL

 
http://www.imdb.com/title/tt1629757/


When young Jay Moriarty discovers that the mythic Mavericks surf break, one of the biggest waves on Earth, exists just miles from his Santa Cruz home, he enlists the help of local legend Frosty Hesson to train him to survive it. 



Directors:
 Michael Apted, Curtis Hanson

Writers:
 Kario Salem (screenplay), Jim Meenaghan (story)

Stars:
 Jonny Weston, Gerard Butler, Elisabeth Shue

Genres:
 Drama | Sport 

Country:
USA

Language:
English 



Format                                   : AVI
Format/Info                              : Audio Video Interleave
File size                                : 701 MiB
Duration                                 : 1h 56mn
Overall bit rate                         : 841 Kbps
Writing application                      : VirtualDubMod 1.5.10.3 | www.virtualdub-fr.org || (build 2550/release)
Writing library                          : VirtualDubMod build 2550/release

Video
ID                                       : 0
Format                                   : MPEG-4 Visual
Format profile                           : Advanced Simple@L5
Format settings, BVOP                    : 1
Format settings, QPel                    : No
Format settings, GMC                     : No warppoints
Format settings, Matrix                  : Custom
Codec ID                                 : XVID
Codec ID/Hint                            : XviD
Duration                                 : 1h 56mn
Bit rate                                 : 703 Kbps
Width                                    : 672 pixels
Height                                   : 368 pixels
Display aspect ratio                     : 1.85:1
Frame rate                               : 23.976 fps
Color space                              : YUV
Chroma subsampling                       : 4:2:0
Bit depth                                : 8 bits
Scan type                                : Progressive
Compression mode                         : Lossy
Bits/(Pixel*Frame)                       : 0.119
Stream size                              : 586 MiB (84%)
Writing library                          : XviD 1.2.1 (UTC 2008-12-04)

Audio
ID                                       : 1
Format                                   : AC-3
Format/Info                              : Audio Coding 3
Mode extension                           : CM (complete main)
Format settings, Endianness              : Big
Codec ID                                 : 2000
Duration                                 : 1h 56mn
Bit rate mode                            : Constant
Bit rate                                 : 128 Kbps
Channel(s)                               : 6 channels
Channel positions                        : Front: L C R, Side: L R, LFE
Sampling rate                            : 48.0 KHz
Bit depth                                : 16 bits
Compression mode                         : Lossy
Stream size                              : 107 MiB (15%)
Alignment                                : Split accross interleaves
Interleave, duration                     : 42 ms (1.00 video frame)
Interleave, preload duration             : 500 ms


 
http://bayimg.com/DaJPLAaEl
 
http://bayimg.com/DaJpmAael		
Chasing.Mavericks.2012.BRRip.XviD.AC3-BTRG.avi 734.689 MB
Gathering some info...

Register and log in Isohunt and see no captcha anymore!

4000 symbols left
Hash 5ecfc68027f09c96f561a52125079802feff9677

Related torrents for "Chasing.Mavericks.2012.BRRip.XviD.AC3-BTRG.avi"

Torrent search:

2012 bd