imdb
rating

5.6
A Special Day

A Special Day (2012)

Drama, Foreign

Full description
quality   dvdrip

A.Special.Day.[Un.Giorno.Speciale].2012.DVDRip.XviD.AC3.HORiZON-ArtSubs

Size 1.221 GB   184 seeders     Added 2013-02-18 17:31:05

Stream torrent
Starting‚Ä• You need BitLord! Get it from 1BitLord.com
To download or stream you need BitLord. Visit them at BitLord.com
Title:
Un Giorno Speciale Aka A Special Day

Country:
Italy/2012

Language:
Italian

Subtitle:
English

Director:
Francesca Comencini

Writers:
Claudio Bigagli (novel), Francesca Comencini (story)

Stars:
Filippo Scicchitano, Giulia Valentini, Roberto Infascelli

Synopsis:
Gina and Marco are two living in Rome suburbs. The two meet in a very special day: their first day at work. They have a future that awaits them and really seems at hand. Gina is about to realize her dream of becoming an actress, while Marco for the first time has found an opportunity that allows him to start dreaming: a job in a car rental company as a driver. They are enabled to know each other since his first duty is to drive Gina to an appointment, and given a delay, they have to share the whole day. This journey will take them from the periphery to the center of the city, will serve both to compare their experiences and think about a future that has already begun...

Trivia:
Oficial Selection for Venice Film Festival 2012

Imdb: 
http://www.imdb.com/title/tt2299792

Trailer: 
http://www.movieplayer.it/video/trailer-un-giorno-speciale_11491/

Media Info:

General
Complete name                            : A.Special.Day.[Un.Giorno.Speciale].2012.DVDRip.XviD.AC3.HORiZON-ArtSubs
Format                                   : AVI
Format/Info                              : Audio Video Interleave
File size                                : 1.13 GiB
Duration                                 : 1h 19mn
Overall bit rate                         : 2 040 Kbps
Writing application                      : VirtualDubMod 1.5.4.1 (build 2178/release)
Writing library                          : VirtualDubMod build 2178/release

Video
ID                                       : 0
Format                                   : MPEG-4 Visual
Format profile                           : Advanced Simple@L5
Format settings, BVOP                    : No
Format settings, QPel                    : No
Format settings, GMC                     : No warppoints
Format settings, Matrix                  : Custom
Codec ID                                 : XVID
Codec ID/Hint                            : XviD
Duration                                 : 1h 19mn
Bit rate                                 : 1 646 Kbps
Width                                    : 720 pixels
Height                                   : 304 pixels
Display aspect ratio                     : 2.35:1
Frame rate                               : 25.000 fps
Color space                              : YUV
Chroma subsampling                       : 4:2:0
Bit depth                                : 8 bits
Scan type                                : Progressive
Compression mode                         : Lossy
Bits/(Pixel*Frame)                       : 0.301
Stream size                              : 935 MiB (81%)
Writing library                          : XviD 1.2.1 (UTC 2008-12-04)

Audio
ID                                       : 1
Format                                   : AC-3
Format/Info                              : Audio Coding 3
Mode extension                           : CM (complete main)
Format settings, Endianness              : Big
Codec ID                                 : 2000
Duration                                 : 1h 19mn
Bit rate mode                            : Constant
Bit rate                                 : 384 Kbps
Channel(s)                               : 6 channels
Channel positions                        : Front: L C R, Side: L R, LFE
Sampling rate                            : 48.0 KHz
Bit depth                                : 16 bits
Compression mode                         : Lossy
Delay relative to video                  : 350ms
Stream size                              : 218 MiB (19%)
Alignment                                : Split accross interleaves
Interleave, duration                     : 40 ms (1.00 video frame)
Interleave, preload duration             : 500 ms
Language                                 : Italiano

		
A.Special.Day.[Un.Giorno.Speciale].2012.DVDRip.XviD.AC3.HORiZON-ArtSubs/A.Special.Day.[Un.Giorno.Speciale].2012.DVDRip.XviD.AC3.HORiZON-ArtSubs.avi 1.215 GB
A.Special.Day.[Un.Giorno.Speciale].2012.DVDRip.XviD.AC3.HORiZON-ArtSubs/A.Special.Day.[Un.Giorno.Speciale].2012.DVDRip.XviD.AC3.HORiZON-ArtSubs.sub 5.997 MB
A.Special.Day.[Un.Giorno.Speciale].2012.DVDRip.XviD.AC3.HORiZON-ArtSubs/A.Special.Day.[Un.Giorno.Speciale].2012.DVDRip.XviD.AC3.HORiZON-ArtSubs.idx 70.127 KB
Gathering some info...

Register and log in Isohunt and see no captcha anymore!

4000 symbols left
Hash 78b3d5f2478cc3d655d8d47908f834f49d2a0685

Related torrents for "A.Special.Day.[Un.Giorno.Speciale].2012.DVDRip.XviD.AC3.HORiZON-ArtSubs"

Torrent search:

dvdrip 2012