imdb
rating

6.7
The Fast and the Furious

The Fast and the Furious (2001)

Action, Crime, Thriller

Full description
quality   cam dvdrip x264 h264 bd hd

The Fast and the Furious (2001)

Size 367.081 MB   0 seeders     Added 2013-02-19 06:19:21

Stream torrent
Starting‥ You need BitLord! Get it from BitLord.com
To download or stream you need BitLord. Visit them at BitLord.com
 http://www.imdb.com/title/tt0232500/

General The.Fast.and.the.Furious.2001.the.HH.mp4
Format                                   : MPEG-4
Format profile                           : Base Media
Codec ID                                 : isom
File size                                : 350 MiB
Duration                                 : 1h 46mn
Overall bit rate mode                    : Variable
Overall bit rate                         : 458 Kbps
Encoded date                             : UTC 2013-02-18 08:38:12
Tagged date                              : UTC 2013-02-18 08:38:12

Video
ID                                       : 1
Format                                   : AVC
Format/Info                              : Advanced Video Codec
Format profile                           : High@L3.0
Format settings, CABAC                   : Yes
Format settings, ReFrames                : 4 frames
Codec ID                                 : avc1
Codec ID/Info                            : Advanced Video Coding
Duration                                 : 1h 46mn
Bit rate                                 : 391 Kbps
Maximum bit rate                         : 2 611 Kbps
Width                                    : 720 pixels
Height                                   : 304 pixels

Stream size                              : 299 MiB (85%)

Audio
ID                                       : 2
Format                                   : AAC

Format profile                           : HE-AAC / LC
Codec ID                                 : 40
Duration                                 : 1h 46mn
Bit rate mode                            : Variable
Bit rate                                 : 64.0 Kbps
Maximum bit rate                         : 91.4 Kbps
Channel(s)                               : 2 channels
Channel positions                        : Front: L R
Sampling rate                            : 48.0 KHz / 24.0 KHz
Compression mode                         : Lossy
Stream size                              : 48.9 MiB (14%)


SCREENS
[img]image[/img]
[img]image[/img]
[img]image[/img]		
The Fast and the Furious (2001)/The.Fast.and.the.Furious.2001.the.HH.mp4 367.015 MB
The Fast and the Furious (2001)/The.Fast.and.the.Furious.2001.the.HH.srt 64.121 KB
The Fast and the Furious (2001)/info.txt 2.027 KB
Gathering some info...

Register and log in Isohunt and see no captcha anymore!

4000 symbols left
Hash 6b258ba2714dc624303bf4b4dec9147600e438e2

Related torrents for "The Fast and the Furious (2001)"

Torrent search:

2001