imdb
rating

7.4
Z

Z (2015)

Drama

Full description
quality   dvdrip dvdr

Justin Timberlake - Suit & Tie (Ft. JAY Z) 2013 M4A+MP4 (1080p) x264 [VX] [P2PDL]

Size 55.364 MB   1 seeders     Added 2013-02-19 07:57:56

Stream torrent
Starting‥ You need BitLord! Get it from 1BitLord.com
To download or stream you need BitLord. Visit them at BitLord.com
							
Justin Timberlake - Suit And Tie (Ft. JAY Z) 2013 M4A+MP4 (1080p) x264 [VX] [P2PDL]
 1080p Full HD MP4 Video
 +
 128 Kbps/VBR M4A Audio
General
Complete name : Justin Timberlake - Suit & Tie Ft. Jay Z (1080p) x264 [VX] [P2PDL].mp4
Format : MPEG-4
Format profile : Base Media / Version 2
Codec ID : mp42
File size : 47.0 MiB
Duration : 5mn 29s
Overall bit rate mode : Variable
Overall bit rate : 1 194 Kbps
Video
Format : AVC
Format/Info : Advanced Video Codec
Width : 1 920 pixels
Height : 800 pixels
Display aspect ratio : 2.40:1
Frame rate mode : Variable
Frame rate : 23.976 fps
Stream size : 41.8 MiB (89%)
Writing library : x264 core 129
Audio
Format : AAC
Bit rate mode : Variable
Bit rate : 127 Kbps
Channel(s) : 2 channels
Channel positions : Front: L R
Sampling rate : 48.0 KHz
Stream size : 5.00 MiB (11%)
Subtitles : NoScreens:
------------------------------------------------------------------------
Notes:
* Recommended to use latest version VLC Media Player.
* Install shark007 codecs in case of any kind of problem in playback (For non-VLC Media Player users).
* Alternatively, install Core AVC codecs, the fastest decoder that there is coupled with Community Center Codec Pack and play on Windows Media Player Classic.
Greets to: VYTO, a2zRG, MusiK_KinG, Kuroyukihime, Caveman, Ash968, Neon, TwentyForty, Masta, TorDigger and staff members at ExtraTorrent, TPB, H33T, KAT, 1337x, PublicHD, Ahashare, TorrentMafia, Limetorrents, BTScene, P2PDL, and all others
Encoder Notes: Looking For Early Access To Anything You Can Provide DVDScr, R5, DVDRips, BluRay, Direct Audio, Early Music
Releases, Seedboxes, Links, Dedicated Servers anything u can provide, Advance / Promo CDs/DVDs. If You Got anything to
offer contact me at "prg@hush.com"
						
Justin Timberlake - Suit & Tie (Ft. JAY Z) 2013 M4A+MP4 (1080p) x264 [VX] [P2PDL]/Justin Timberlake - Suit & Tie Ft. Jay Z (1080p) x264 [VX] [P2PDL].mp4 49.246 MB
Justin Timberlake - Suit & Tie (Ft. JAY Z) 2013 M4A+MP4 (1080p) x264 [VX] [P2PDL]/01 Justin Timberlake - Suit & Tie (feat. JAY Z).m4a 6.009 MB
Justin Timberlake - Suit & Tie (Ft. JAY Z) 2013 M4A+MP4 (1080p) x264 [VX] [P2PDL]/Cover.jpg 99.394 KB
Gathering some info...

Register and log in Isohunt and see no captcha anymore!

4000 symbols left
Hash cf511ffcbcd442635cebbe30f675fad381765056

Related torrents for "Justin Timberlake - Suit & Tie (Ft. JAY Z) 2013 M4A+MP4 (1080p) x264 [VX] [P2PDL]"

Torrent search:

x264 fullhd 2013