imdb
rating

5.5
Death Race: Inferno

Death Race: Inferno (2012)

Action, Science Fiction, Thriller

Full description

Death Race 3 (2012) UNRATED BRRip 720p Dual Audio [Hindi-Eng] ESubs

Size 873.571 MB   0 seeders     Added 2013-02-19 14:19:35

Stream torrent
Starting‥ You need BitLord! Get it from 1BitLord.com
To download or stream you need BitLord. Visit them at BitLord.com
							General
Format : Matroska
Format version : Version 2
File size : 818 MiB
Duration : 1h 45mn
Overall bit rate : 1 087 Kbps
Movie name : Death Race 3
Video
ID : 1
Format : AVC
Format/Info : Advanced Video Codec
Format profile : High@L4.0
Format settings, CABAC : Yes
Format settings, ReFrames : 7 frames
Muxing mode : Header stripping
Codec ID : V_MPEG4/ISO/AVC
Duration : 1h 45mn
Bit rate : 831 Kbps
Width : 1 280 pixels
Height : 720 pixels
Display aspect ratio : 16:9
Frame rate mode : Constant
Frame rate : 23.976 fps
Color space : YUV
Chroma subsampling : 4:2:0
Bit depth : 8 bits
Scan type : Progressive
Bits/(Pixel*Frame) : 0.038
Stream size : 609 MiB (74%)
Title : - Sonic -
Writing library : x264 core 129 r2230 1cffe9f
Audio 1
ID : 2
Format : AC-3
Format/Info : Audio Coding 3
Mode extension : CM (complete main)
Format settings, Endianness : Big
Muxing mode : Header stripping
Codec ID : A_AC3
Duration : 1h 45mn
Bit rate mode : Constant
Bit rate : 128 Kbps
Channel(s) : 6 channels
Channel positions : Front: L C R, Side: L R, LFE
Sampling rate : 48.0 KHz
Bit depth : 16 bits
Compression mode : Lossy
Delay relative to video : 24ms
Stream size : 96.3 MiB (12%)
Title : - Sonic -
Language : Hindi
Audio #2
ID : 3
Format : AC-3
Format/Info : Audio Coding 3
Mode extension : CM (complete main)
Format settings, Endianness : Big
Muxing mode : Header stripping
Codec ID : A_AC3
Duration : 1h 45mn
Bit rate mode : Constant
Bit rate : 128 Kbps
Channel(s) : 2 channels
Channel positions : Front: L R
Sampling rate : 48.0 KHz
Bit depth : 16 bits
Compression mode : Lossy
Stream size : 96.3 MiB (12%)
Title : - Sonic -
Language : English
						
Death Race 3 (2012) UNRATED BRRip 720p Dual Audio [Hindi-Eng] ESubs/1.mkv 5.179 MB
Death Race 3 (2012) UNRATED BRRip 720p Dual Audio [Hindi-Eng] ESubs/2.mkv 10.402 MB
Death Race 3 (2012) UNRATED BRRip 720p Dual Audio [Hindi-Eng] ESubs/Death Race 3 (2012) UNRATED BRRip 720p Dual Audio [Hindi-Eng] ESubs.mkv 857.909 MB
Gathering some info...

Register and log in Isohunt and see no captcha anymore!

4000 symbols left
Hash d6020231fd536f5859bf02e97547feeb3d1b609a

Related torrents for "Death Race 3 (2012) UNRATED BRRip 720p Dual Audio [Hindi-Eng] ESubs"

Torrent search:

english hd hindi 2012 bd