Ireland

Ireland (2004)

Drama

Full description

Wolfland Part 1+2 [As.Gaeilge] [RTE Ireland] HQ PDTV x264 AC3 DeViL303

Size 562.382 MB   0 seeders     Added 2013-02-19 19:23:50

Stream torrent
Starting‥ You need BitLord! Get it from BitLord.com
To download or stream you need BitLord. Visit them at BitLord.com
Wolfland Part 1 & 2 [As.Gaeilge] [RTE Ireland] HQ PDTV x264 AC3 DeViL303
Broadcast 7th / 14th Jan 2013 RTE ONE 
WOLFLAND - a New RTÉ/BBC Irish language two part documentary that explores our fascination and fear of the Wolf.
There was a time, when over 20,000 wolves roamed Ireland. As super predators they are a natural part of the landscape and ecosystem and are deeply embedded in many of our famous myths and legends.
In this documentary series, Dr. Éamonn Ó Ciardha looks at our complex relationship with the Wolf, taking us on a hair raising journey into Ireland\'s past, exploring the background to what many of us experience as an instinctive fear of the Wolf or Mac Tíre - son of the land. A land that was in increasing turmoil at the turn of the 16th century as plantation settlers began to arrive. For them, the wolf became a fearsome symbol of this wild and dangerous land.
Large-scale farming and deforestation saw the wolf rapidly losing its hunting and breeding grounds. But war, rebellion and fighting between settlers and a growing number of Irish rebels provided rich pickings for wolves - preying on livestock and scavenging on the fallen. The terrified settlers called their new home \"Wolfland\".
The first programme in the series looks at the traces and tracks the wolf has left with us in Ireland, within the landscape and place names, the language, the literature and the mythology. Roaming the land for some 20,000 years the wolf was certainly feared, but also revered in Ireland. It was a creature that symbolised strength and courage to the native Irish, but to the arriving settlers from the 16th century onwards the wolf was a dark and savage creature representing all that needed tamed in Ireland.
In the second programme we look at the escalating fighting between the settlers and the Irish as mass plantations began across Ireland and the role the wolf played in the bloody warfare of the Cromwellian era. Documentary evidence is uncovered of early propaganda linking the rebel Irish, the catholic priest and the savage wolf and of a campaign to rid Ireland of all three.
Filmed across Ireland, this series is a fascinating mix of Irish history and natural history. A compelling look at the plantation era, charting the importance of the wolf in Ireland\'s history and its ultimate extinction.
File info                                : Wolfland Part 1 [HQ PDTV] [RTE] [x264 AC3] DeViL303.mkv
Format                                   : Matroska
Format version                           : Version 1
File size                                : 268 MiB
Duration                                 : 25mn 1s
Overall bit rate mode                    : Variable
Overall bit rate                         : 1 497 Kbps
Encoded date                             : UTC 2013-02-19 12:07:46
Writing application                      : mkvmerge v2.5.3 (\'Boogie\') built on Mar  7 2009 15:00:41
Writing library                          : libebml v0.7.7 + libmatroska v0.8.1
Video
ID                                       : 1
Format                                   : AVC
Format/Info                              : Advanced Video Codec
Format profile                           : High@L3.0
Format settings, CABAC                   : Yes
Format settings, ReFrames                : 3 frames
Codec ID                                 : V_MPEG4/ISO/AVC
Duration                                 : 25mn 1s
Bit rate mode                            : Variable
Bit rate                                 : 1 303 Kbps
Maximum bit rate                         : 12.0 Mbps
Width                                    : 720 pixels
Height                                   : 576 pixels
Display aspect ratio                     : 16:9
Original display aspect ratio            : 5:4
Frame rate mode                          : Constant
Frame rate                               : 25.000 fps
Standard                                 : PAL
Color space                              : YUV
Chroma subsampling                       : 4:2:0
Bit depth                                : 8 bits
Scan type                                : Progressive
Bits/(Pixel*Frame)                       : 0.126
Stream size                              : 228 MiB (85%)
Writing library                          : x264 core 93 r1542M 5b86182
Encoding settings                        : cabac=1 / ref=3 / deblock=1:-1:-1 / 
Audio
ID                                       : 2
Format                                   : AC-3
Format/Info                              : Audio Coding 3
Mode extension                           : CM (complete main)
Format settings, Endianness              : Big
Codec ID                                 : A_AC3
Duration                                 : 25mn 1s
Bit rate mode                            : Constant
Bit rate                                 : 192 Kbps
Channel(s)                               : 2 channels
Channel positions                        : Front: L R
Sampling rate                            : 48.0 KHz
Bit depth                                : 16 bits
Compression mode                         : Lossy
Stream size                              : 34.4 MiB (13%)
Default                                  : Yes
Forced                                   : No
Wolfland Part 1+2 [As.Gaeilge] [RTE Ireland] HQ PDTV x264 AC3 DeViL303/Screenshots/Wolfland Part 1 [HQ PDTV] [RTE] [x264 AC3] DeViL303.mkv_snapshot_00.54_[2013.02.19_12.48.28].jpg 334.973 KB
Wolfland Part 1+2 [As.Gaeilge] [RTE Ireland] HQ PDTV x264 AC3 DeViL303/Screenshots/Wolfland Part 2 [HQ PDTV] [RTE] [x264 AC3] DeViL303.mkv_snapshot_19.48_[2013.02.19_12.54.31].jpg 318.928 KB
Wolfland Part 1+2 [As.Gaeilge] [RTE Ireland] HQ PDTV x264 AC3 DeViL303/Screenshots/Wolfland Part 2 [HQ PDTV] [RTE] [x264 AC3] DeViL303.mkv_snapshot_15.49_[2013.02.19_12.53.46].jpg 307.307 KB
Gathering some info...

Register and log in Isohunt and see no captcha anymore!

4000 symbols left
Hash e229f79f755e06819ec325ec2a473dec9939bb80

Related torrents for "Wolfland Part 1+2 [As.Gaeilge] [RTE Ireland] HQ PDTV x264 AC3 DeViL303"

Torrent search:

x264 hdtv 2013