imdb
rating

8.5
The Walking Dead

The Walking Dead (2010)

Action & Adventure, Drama

Full description

The Walking dead S03E10_home

Size 1.291 GB   0 seeders     Added 2013-02-19 21:23:49

Stream torrent
Starting‥ You need BitLord! Get it from BitLord.com
To download or stream you need BitLord. Visit them at BitLord.com
Video
ID                                       : 224 (0xE0)
Format                                   : MPEG Video
Format version                           : Version 2
Format profile                           : Main@Main
Format settings, BVOP                    : Yes
Format settings, Matrix                  : Custom
Format settings, GOP                     : Variable
Duration                                 : 37mn 20s
Bit rate mode                            : Variable
Bit rate                                 : 3 598 Kbps
Maximum bit rate                         : 8 000 Kbps
Width                                    : 720 pixels
Height                                   : 576 pixels
Display aspect ratio                     : 4:3
Frame rate                               : 25.000 fps
Standard                                 : PAL
Color space                              : YUV
Chroma subsampling                       : 4:2:0
Bit depth                                : 8 bits
Scan type                                : Progressive
Scan order                               : Top Field First
Compression mode                         : Lossy
Bits/(Pixel*Frame)                       : 0.347
Stream size                              : 961 MiB (94%)

Audio
ID                                       : 189 (0xBD)-128 (0x80)
Format                                   : AC-3
Format/Info                              : Audio Coding 3
Mode extension                           : CM (complete main)
Format settings, Endianness              : Big
Muxing mode                              : DVD-Video
Duration                                 : 37mn 20s
Bit rate mode                            : Constant
Bit rate                                 : 160 Kbps
Channel(s)                               : 2 channels
Channel positions                        : Front: L R
Sampling rate                            : 48.0 KHz
Bit depth                                : 16 bits
Compression mode                         : Lossy
Stream size                              : 42.7 MiB (4%)-------------------------------------Torrent downloaded from http://thepiratebay.se
The Walking dead S03E10_home/VIDEO_TS/VIDEO_TS.BUP 8.192 KB
The Walking dead S03E10_home/VIDEO_TS/VIDEO_TS.IFO 8.192 KB
The Walking dead S03E10_home/VIDEO_TS/VTS_01_0.BUP 34.816 KB
Gathering some info...

Register and log in Isohunt and see no captcha anymore!

4000 symbols left
Hash 6a47f478c5c46d63bbee826fbdf96ffaf374cc17

Related torrents for "The Walking dead S03E10_home"